Ссылка на приватное зеркало нашего сайта всего за 1$. Внимание количество ограничено!!!

2 сезон

iTunes

1 сезон

1

2 сезон

2 сезон

iTunes

1 сезон

RePack

30

Ultimate

ВАЖНО

ИГРА 18+

pack

RePack

MK11
pack

Забери бонус

RePack

jed

!!Акция!!

Alien_Rage

RePack

fifa19

RePack

Assassins Creed: Odyssey

RePack

NEED FOR SPEED™ PAYBACK

4 сезон

9 сезон

Бесстыжие 9 сезон

Все сериалы

все сериалы на PB.wtf

RePack

FAR CRY 5
  

Кобра-Кай / Cobra Kai / Сезон: 1 / Серии: 1-10 из 10 (Джон Харвитц, Хейден Шлоссберг, Дженнифер Челотта) [2018, Боевик, драма, комедия, WEB-DL 720p] MVO [BaibaKo] pb.wtf

Кобра-Кай через торрент pb.wtf

Размер: 9.91 GB | Добавлен: 2 года 6 мес. назад | Торрент скачан:79 раз
Скачать  

07-05-2018 06:46 Кобра-Кай Скачать торрент  

Кобра-Кай / Cobra Kai
Год выпуска: 2018
Страна: США
Жанр: Боевик, драма, комедия
Продолжительность: ~ 00:28:00
Перевод: Профессиональный многоголосый |
Субтитры: отсутствуют

Режиссер: Джон Харвитц, Хейден Шлоссберг, Дженнифер Челотта

rating

В ролях:

Холо Маридуэньо, Тэннер Бьюкэнэн, Джейкоб Бертран, Кортни Хенгелер, Ральф Маччио, Мэри Мэтилин Маусер, Уильям Забка, Николь Браун, Коннор Мёрдок, Гриффин Сантопьетро

Описание:

В прошлом хулиган, а ныне разорившийся неудачник, Джонни Лоуренс считает, что единственный его шанс вернуться к нормальной жизни — заново открыть печально известную школу карате «Кобра Кай». Попытка наладить свои дела сводит Джонни с Дэниелом ЛаРуссо — успешным мужчиной, который изо всех сил старается сохранять жизненную гармонию, которой когда-то учил его мистер Мияги. Встретившись вновь, Дэнни и Джонни пытаются избавиться от демонов прошлого и проблем настоящего единственным известным им способом — с помощью карате.

Качество: WEB-DL 720p
Формат: MKV

Видео: MPEG-4 AVC, ~ 4026 Кбит/с, 1280x720
Аудио#1: Русский (AC3, 6 ch, 384 Кбит/с)
Аудио#2: Английский (AC3, 6 ch, 384 Кбит/с)
скриншот   скриншот   скриншот   скриншот  

Общее
Уникальный идентификатор : 217180916796240786099579707015129846278 (0xA36385E9EE06971686C9B7620989D206)
Полное имя : F:\Cobra.Kai.s01.HD720p.WEB-DL.Rus.Eng.BaibaKo.tv\Cobra.Kai.s01e01.HD720p.WEB-DL.Rus.Eng.BaibaKo.tv.mkv
Формат : Matroska
Версия формата : Version 4 / Version 2
Размер файла : 969 Мбайт
Продолжительность : 28 м. 15 с.
Общий поток : 4796 Кбит/сек
Дата кодирования : UTC 2018-05-05 22:34:36
Программа кодирования : mkvmerge v9.3.1 ('Mask Machine') 64bit
Библиотека кодирования : libebml v1.3.4 + libmatroska v1.4.5

Видео
Идентификатор : 1
Формат : AVC
Формат/Информация : Advanced Video Codec
Профиль формата : High@L4.1
Параметр CABAC формата : Да
Параметр RefFrames формата : 4 кадра
Идентификатор кодека : V_MPEG4/ISO/AVC
Продолжительность : 28 м. 15 с.
Битрейт : 4026 Кбит/сек
Ширина : 1280 пикселей
Высота : 720 пикселей
Соотношение сторон : 16:9
Режим частоты кадров : Постоянный
Частота кадров : 23,976 (24000/1001) кадра/сек
Цветовое пространство : YUV
Субдискретизация насыщенности : 4:2:0
Битовая глубина : 8 бит
Тип развёртки : Прогрессивная
Бит/(Пиксели*Кадры) : 0.182
Размер потока : 814 Мбайт (84%)
Default : Да
Forced : Нет

Аудио #1
Идентификатор : 2
Формат : AC-3
Формат/Информация : Audio Coding 3
Расширение режима : CM (complete main)
Параметр Endianness формата : Big
Идентификатор кодека : A_AC3
Продолжительность : 28 м. 15 с.
Вид битрейта : Постоянный
Битрейт : 384 Кбит/сек
Каналы : 6 каналов
Расположение каналов : Front: L C R, Side: L R, LFE
Частота : 48,0 КГц
Частота кадров : 31,250 кадров/сек (1536 spf)
Метод сжатия : С потерями
Размер потока : 77,6 Мбайт (8%)
Язык : Russian
Default : Да
Forced : Нет

Аудио #2
Идентификатор : 3
Формат : AC-3
Формат/Информация : Audio Coding 3
Расширение режима : CM (complete main)
Параметр Endianness формата : Big
Идентификатор кодека : A_AC3
Продолжительность : 28 м. 15 с.
Вид битрейта : Постоянный
Битрейт : 384 Кбит/сек
Каналы : 6 каналов
Расположение каналов : Front: L C R, Side: L R, LFE
Частота : 48,0 КГц
Частота кадров : 31,250 кадров/сек (1536 spf)
Метод сжатия : С потерями
Размер потока : 77,6 Мбайт (8%)
Язык : English
Default : Нет
Forced : Нет

pb.wtf



Скачать Кобра-Кай через торрент http://pic1.kartinco.top/images/11/o5uf26.jpg Скачать фильм Кобра-Кай через торрент бесплантно в хорошем качестве Описание: В прошлом хулиган, а ныне разорившийся неудачник, Джонни Лоуренс считает, что единственный его шанс вернуться к нормальной жизни ... 9.8 10 6
Info! Серебряная раздача, засчитывается только 50% скачанного.
Торрент: Зарегистрирован [2018-05-07 06:46] · скачан: 79 раз
Статус: √ проверено
Размер: 9.91 GB
Как cкачать? Как скачать Кобра-Кай через торрент | qTorrent

% Раздел Тема Автор DL S | L
Зарубежные сериалы [ 18.73 GB ] Кобра Кай / Cobra Kai / Сезон: 1 / Серии: 1-10 из 10 [2018 WEB-DL 1080p] MVO [VSI Moscow] bober100 Скачать
1 | 0
Зарубежные сериалы [ 2.06 GB ] Кобра Кай / Cobra Kai / Сезон: 2 / Серии: 1- из 10 [2019 WEB-DL 1080p] MVO [VSI Moscow] bober100 Скачать
1 | 0
Зарубежные сериалы [ 27.86 GB ] Кобра-Кай / Cobra Kai / Сезон: 2 / Серии: 1-10 из 10 [2019 WEB-DL 2160p] [MVO] killermax2013 Скачать
1 | 0
Зарубежные сериалы [ 13.7 GB ] Кобра-Кай / Cobra Kai / Сезон: 2 / Серии: 1-10 из 10 [2019 WEB-DL 1080p] [MVO] killermax2013 Скачать
2 | 0
Зарубежные сериалы [ 2.91 GB ] Кобра-Кай / Cobra Kai / Сезон: 2 / Серии: 1-10 из 10 [2019 WEBRip] [DVO] killermax2013 Скачать
1 | 0
Зарубежные сериалы [ 3.5 GB ] Кобра-Кай / Cobra Kai / Сезон: 2 / Серии: 1-10 из 10 [2019 WEB-DLRip] [MVO] killermax2013 Скачать
1 | 0
Зарубежные сериалы [ 3.33 GB ] Кобра-Кай / Cobra Kai / Сезон: 1 / Серии: 1-10 из 10 [2018 WEBRip] MVO [Good People] bober100 Скачать
1 | 0

28-11-2019 20:33  

Отключить всю рекламу на сайте

    Дорогой пользователь! Огромная просьба, поблагодарите релизера, оцените раздачу и оставьте свои комментарий, если Вы скачали Кобра-Кай через торрент бесплатно! Внесите свою лепту в развитие PiratBit!
    Комментировать посты могут только пользователи прошедшие не сложную регистрацию
    Показать сообщения:    

    Кобра-Кай через торрент
    Скачать бесплатно Кобра-Кай
    Кобра-Кай скачать торрент
    Кобра-Кай смотреть онлайн
    Cкачать фильм Кобра-Кай бесплатно
    Кобра-Кай скачать торрент в хорошем качестве
    Кобра-Кай смотреть онлайн бесплатно в хорошем качестве


    Вы не можете начинать темы
    Вы не можете отвечать на сообщения
    Вы не можете редактировать свои сообщения
    Вы не можете удалять свои сообщения
    Вы не можете голосовать в опросах
    Вы не можете прикреплять файлы к сообщениям
    Вы можете скачивать файлы