Ссылка на приватное зеркало нашего сайта всего за 1$. Внимание количество ограничено!!!

2 сезон

iTunes

1 сезон

1

iTunes

iTunes

iTunes

1 сезон

RePack

30

ИГРА 18+

pack

ВАЖНО

!!Акция!!

Alien_RageХит недели

RePack

MK11
pack

Забери бонус

RePack

jed

!!Акция!!

Alien_Rage

RePack

fifa19

RePack

Assassins Creed: Odyssey

RePack

NEED FOR SPEED™ PAYBACK

4 сезон

9 сезон

Бесстыжие 9 сезон

Все сериалы

все сериалы на PB.wtf

RePack

FAR CRY 5
  

Посольство / Серия 1-13 из 13 (Артём Аксененко) [2018 г., Детектив, криминал, SATRip] pb.wtf

Посольство через торрент pb.wtf

Размер: 7.07 GB | Добавлен: 2 года 5 мес. назад | Торрент скачан:93 раза
Скачать  

07-05-2018 12:47 Посольство Скачать торрент  

Посольство / Серия 1-13 из 13
Год выпуска: 2018
Страна: Россия
Жанр: Детектив, криминал
Продолжительность: 13 х 00:50:00
Субтитры: Нет

Режиссер: Артём Аксененко

В ролях: Игорь Ливанов, Гела Месхи, Виталий Кищенко, Виктория Толстоганова, Юлия Ауг, Илья Ермолов, Сергей Комаров, Сергей Апрельский, Анна Андрусенко, Дмитрий Фрид, Виктория Соловьёва, Бесо Гатаев, Диана Пожарская, Мартиньш Вилсонс

Описание: Одна из стран восточной Европы находится на пороге принятия «антирусского пакета», её активно подталкивают к этому власти США и Великобритании. Необходима провокация, чтобы все население Страны поддержало своё правительство в борьбе с Россией. История начинается с того, что в одном из столичных баров местные спецслужбы задерживают первого секретаря российского посольства Геннадия Веденеева (Гела Месхи) с дипломатическим кейсом, набитым наркотиками. Событие моментально приобретает масштаб главного международного скандала. Теперь команде российских дипломатов во главе с Алексеем Прокофьевым (Игорь Ливанов) предстоит не только оперативно выяснить, кто и для чего сплёл такую сеть интриг вокруг российского посольства, но и разобраться в назревающем международном конфликте.

Качество: SATRip
Формат: AVI
Видео кодек: XviD
Аудио кодек: MP3
Видео: XviD, 1800 Кбит/с, 720x304
Аудио#1: МР3, 2 ch, 128 Кбит/с
скриншот   скриншот   скриншот   скриншот  

General
Complete name : H:\релизы.торрентфайл\Посольство(2018)\Posolstvo.01.SATRip.[www.riperam.org].avi
Format : AVI
Format/Info : Audio Video Interleave
File size : 564 MiB
Duration : 40mn 35s
Overall bit rate : 1 942 Kbps

Video
ID : 0
Format : MPEG-4 Visual
Format profile : Advanced Simple@L5
Format settings, BVOP : 2
Format settings, QPel : No
Format settings, GMC : No warppoints
Format settings, Matrix : Default (H.263)
Codec ID : XVID
Codec ID/Hint : XviD
Duration : 40mn 35s
Bit rate : 1 800 Kbps
Width : 720 pixels
Height : 304 pixels
Display aspect ratio : 2.35:1
Frame rate : 25.000 fps
Color space : YUV
Chroma subsampling : 4:2:0
Bit depth : 8 bits
Scan type : Progressive
Compression mode : Lossy
Bits/(Pixel*Frame) : 0.329
Stream size : 523 MiB (93%)
Writing library : XviD 1.2.1 (UTC 2008-12-04)

Audio
ID : 1
Format : MPEG Audio
Format version : Version 1
Format profile : Layer 3
Mode : Joint stereo
Mode extension : MS Stereo
Codec ID : 55
Codec ID/Hint : MP3
Duration : 40mn 35s
Bit rate mode : Constant
Bit rate : 128 Kbps
Channel(s) : 2 channels
Sampling rate : 48.0 KHz
Compression mode : Lossy
Stream size : 37.2 MiB (7%)
Alignment : Aligned on interleaves
Interleave, duration : 24 ms (0.60 video frame)
Writing library : LAME3.99r
Encoding settings : -m j -V 4 -q 9 -lowpass 17 -b 128

Внимание! Раздача ведётся путём добавления новых серий; при каждом добавлении создётся новый торрент. Чтобы начать докачку новой серии, пользователям необходимо сделать следующее:
  • Остановить скачивание,
  • Удалить старый торрент у себя из клиента (старые серии удалять не надо),
  • Скачать новый торрент и запустить его у себя в клиенте вместо старого, при этом указать клиенту путь в старую папку куда и должно происходить скачивание новых серий.
Ваш клиент при этом должен произвести хеширование (проверку) старой папки (если не производит сам - помогите ему сделать это), и будет докачивать только те серии которых у вас ещё нет. Старые серии при этом не удаляются, а продолжают раздаваться!

Eсли вы уже удалили старые серии, то предотвратить повторную закачку старых серий можно, отжав галочку в соответсвующих местах при запуске нового торрента. По возможности, желательно не удалять старые серии как можно дольше чтобы релизёр не столько продолжал раздавать старые серии, а смог сконцентрироваться на новых.
pb.wtf



Скачать Посольство через торрент http://i105.fastpic.ru/big/2018/0507/b6/8287a403cf7ffe058bba331de6b826b6.jpg Скачать фильм Посольство через торрент бесплантно в хорошем качестве Описание: Одна из стран восточной Европы находится на пороге принятия «антирусского пакета», её активно подталкивают к этому власти США и ... 7.5 10 22
Торрент: Зарегистрирован [2018-05-11 15:31] · скачан: 93 раз
Статус: √ проверено
Размер: 7.07 GB
Как cкачать? Как скачать Посольство через торрент | qTorrent



Последний раз редактировалось: oleg8 (2018-05-15 02:35), всего редактировалось 5 раз(а)

28-11-2019 20:33  

Отключить всю рекламу на сайте

    Дорогой пользователь! Огромная просьба, поблагодарите релизера, оцените раздачу и оставьте свои комментарий, если Вы скачали Посольство через торрент бесплатно! Внесите свою лепту в развитие PiratBit!
    Комментировать посты могут только пользователи прошедшие не сложную регистрацию
    Показать сообщения:    

    Посольство через торрент
    Скачать бесплатно Посольство
    Посольство скачать торрент
    Посольство смотреть онлайн
    Cкачать фильм Посольство бесплатно
    Посольство скачать торрент в хорошем качестве
    Посольство смотреть онлайн бесплатно в хорошем качестве


    Вы не можете начинать темы
    Вы не можете отвечать на сообщения
    Вы не можете редактировать свои сообщения
    Вы не можете удалять свои сообщения
    Вы не можете голосовать в опросах
    Вы не можете прикреплять файлы к сообщениям
    Вы можете скачивать файлы