Ссылка на приватное зеркало нашего сайта всего за 1$. Внимание количество ограничено!!!

2 сезон

iTunes

1 сезон

1

iTunes

iTunes

iTunes

1 сезон

RePack

30

ИГРА 18+

pack

ВАЖНО

!!Акция!!

Alien_RageХит недели

RePack

MK11
pack

Забери бонус

RePack

jed

!!Акция!!

Alien_Rage

RePack

fifa19

RePack

Assassins Creed: Odyssey

RePack

NEED FOR SPEED™ PAYBACK

4 сезон

9 сезон

Бесстыжие 9 сезон

Все сериалы

все сериалы на PB.wtf

RePack

FAR CRY 5
  

Девочки не сдаются / Сезон: 1 / Серии: 1-20 из 20 (Артем Насыбулин, Сергей Краснов, Мария Кравченко (II)) [2018, Мелодрама, комедия, драма, WEB-DL 720p] pb.wtf

Девочки не сдаются через торрент pb.wtf

Размер: 23.88 GB | Добавлен: 2 года 4 мес. назад | Торрент скачан:24 раза
Скачать  

07-05-2018 18:43 Девочки не сдаются Скачать торрент  

Девочки не сдаютсяГод выпуска: 2018
Страна: Россия
Жанр: Мелодрама, комедия, драма
Продолжительность: ~ 00:48:00
Субтитры: отсутствуют

Режиссер: Артем Насыбулин, Сергей Краснов, Мария Кравченко (II)



В ролях:

Любовь Толкалина, Агния Кузнецова, Анна Якунина, Андрей Чернышов, Мария Валешная, Виктория Кобленко, Алексей Макаров, Кирилл Сафонов, Данила Дунаев, Максим Аверин, Виктор Логинов, Александр Ратников, Алексей Демидов, Ирина Темичева, Виктория Полторак, Екатерина Казакова, Александр Андриенко, Валентина Ляпина

Описание:

5 женских судеб, 5 сложных характеров и 5 любовных драм — в новой лирической комедии героини влюбляются, изменяют, разводятся, воспитывают детей и мужчин. Экс-модель, ведущая прогноза погоды, бизнесвумен, стюардесса и студентка — они такие разные, но объединяет их одно — стремление к простому женскому счастью. Правда, неожиданные перемены превращают их размеренную жизнь в американские горки с крутыми виражами и непредсказуемым финалом.

Качество: WEB-DL 720p
Формат: MKV

Видео: MPEG-4 AVC, ~ 3500 Кбит/с, 1280x720
Аудио: AC3, 2 ch, 128 Кбит/с
скриншот  скриншот  скриншот  

Общее
Уникальный идентификатор : 57148300889777635965649165618624911804 (0x2AFE5CC5F2B3005D72B43550565CD9BC)
Полное имя : F:\Девочки не сдаются.2018.WEB-DL (720p).Files-x\01.Девочки не сдаются.2018.WEB-DL (720p).Files-x.mkv
Формат : Matroska
Версия формата : Version 4 / Version 2
Размер файла : 1,21 Гбайт
Продолжительность : 47 м. 20 с.
Общий поток : 3668 Кбит/сек
Программа кодирования : Lavf57.71.100
Библиотека кодирования : Lavf57.71.100 / Lavf57.71.100
ErrorDetectionType : Per level 1

Видео
Идентификатор : 1
Формат : AVC
Формат/Информация : Advanced Video Codec
Профиль формата : High@L4.1
Параметр CABAC формата : Да
Параметр RefFrames формата : 5 кадров
Идентификатор кодека : V_MPEG4/ISO/AVC
Продолжительность : 47 м. 20 с.
Битрейт : 3467 Кбит/сек
Ширина : 1280 пикселей
Высота : 720 пикселей
Соотношение сторон : 16:9
Режим частоты кадров : Постоянный
Частота кадров : 25,000 кадров/сек
Цветовое пространство : YUV
Субдискретизация насыщенности : 4:2:0
Битовая глубина : 8 бит
Тип развёртки : Прогрессивная
Бит/(Пиксели*Кадры) : 0.150
Размер потока : 1,15 Гбайт (95%)
Default : Да
Forced : Нет
DURATION : 00:47:20.439000000

Аудио
Идентификатор : 2
Формат : AC-3
Формат/Информация : Audio Coding 3
Расширение режима : CM (complete main)
Параметр Endianness формата : Big
Идентификатор кодека : A_AC3
Продолжительность : 47 м. 20 с.
Вид битрейта : Постоянный
Битрейт : 128 Кбит/сек
Каналы : 2 канала
Расположение каналов : Front: L R
Частота : 44,1 КГц
Частота кадров : 28,711 кадров/сек (1536 spf)
Метод сжатия : С потерями
Задержка видео : -199 мс.
Размер потока : 43,3 Мбайт (3%)
Язык : unknown
Default : Да
Forced : Нет
DURATION : 00:47:20.241000000

Внимание! Раздача ведётся путём добавления новых серий; при каждом добавлении создётся новый торрент. Чтобы начать докачку новой серии, пользователям необходимо сделать следующее:
(1) остановить скачивание,
(2) удалить старый торрент у себя из клиента (старые серии удалять не надо),
(3) скачать новый торрент и запустить его у себя в клиенте вместо старого, при этом указать клиенту путь в старую папку куда и должно происходить скачивание новых серий.
Ваш клиент при этом должен произвести хеширование (проверку) старой папки (если не производит сам - помогите ему сделать это), и будет докачивать только те серии которых у вас ещё нет. Старые серии при этом не удаляются, а продолжают раздаваться!
Eсли вы уже удалили старые серии, то предотвратить повторную закачку старых серий можно, отжав галочку в соответсвующих местах при запуске нового торрента.
pb.wtf



Скачать Девочки не сдаются через торрент http://i105.fastpic.ru/big/2018/0507/39/7d2e2afe0be8643ad37e6a985c33b239.jpg Скачать фильм Девочки не сдаются через торрент бесплантно в хорошем качестве Описание: 5 женских судеб, 5 сложных характеров и 5 любовных драм — в новой лирической комедии героини влюбляются, изменяют, разводятся, ... 8.2 10 5
Info! Золотая раздача, скачанное не засчитывается.
Торрент: Зарегистрирован [2018-06-12 04:42] · скачан: 24 раз
Статус: √ проверено
Размер: 23.88 GB
Как cкачать? Как скачать Девочки не сдаются через торрент | qTorrent

% Раздел Тема Автор DL S | L
Наши сериалы [ 12.11 GB ] Девочки не сдаются / Сезон: 1 / Серии: 1-20 из 20 ) [2018 Мело WEB-DLRip-AVC] bober100 Скачать
1 | 0
Наши сериалы [ 35.87 GB ] Девочки не сдаются / Сезон: 1 / Серии: 1-20 из 20 ) [2018 Мело WEB-DL 1080p] bober100 Скачать
1 | 0

28-11-2019 20:33  

Отключить всю рекламу на сайте

    Дорогой пользователь! Огромная просьба, поблагодарите релизера, оцените раздачу и оставьте свои комментарий, если Вы скачали Девочки не сдаются через торрент бесплатно! Внесите свою лепту в развитие PiratBit!
    Комментировать посты могут только пользователи прошедшие не сложную регистрацию
    Показать сообщения:    

    Девочки не сдаются через торрент
    Скачать бесплатно Девочки не сдаются
    Девочки не сдаются скачать торрент
    Девочки не сдаются смотреть онлайн
    Cкачать фильм Девочки не сдаются бесплатно
    Девочки не сдаются скачать торрент в хорошем качестве
    Девочки не сдаются смотреть онлайн бесплатно в хорошем качестве


    Вы не можете начинать темы
    Вы не можете отвечать на сообщения
    Вы не можете редактировать свои сообщения
    Вы не можете удалять свои сообщения
    Вы не можете голосовать в опросах
    Вы не можете прикреплять файлы к сообщениям
    Вы можете скачивать файлы