2 сезон

iTunes

MVO

1

2 сезон

iTunes

1 сезон

1 сезон

RePack

30

Новинка

ВАЖНО

ИГРА 18+

pack

RePack

MK11
pack

Легкие деньги

RePack

jed

RePack

fifa19

RePack

RDR2

RePack

NEED FOR SPEED™ PAYBACK

4 сезон

9 сезон

Бесстыжие 9 сезон

Все сериалы

все сериалы на PB.wtf

RePack

FAR CRY 5

Anonymous, добрый день, мы не успеваем собрать деньги на оплату серверов за декабрь и январь, помогите нам пожалуйста в это трудное время. В качестве благодарности мы отключим Вам всю рекламу на сайте (укажите свой ник в строку Ваше имя)!

×
  
Magnet ссылка

Винчестер. Дом, который построили призраки / Winchester: The House that Ghosts Built (Майкл Спириг, Питер Спириг) [2018, ужасы, фэнтези, триллер, детектив, биография, BDRip 720p] MVO [HDrezka Studio] +DUB [iTunes] pb.wtf

Винчестер. Дом, который построили призраки через торрент pb.wtf

Размер: 4.24 GB | Добавлен: 2 года 8 мес. назад | Торрент скачан:313 раз
Скачать  

07-05-2018 19:15 Винчестер. Дом, который построили призраки Скачать торрент  

Винчестер. Дом, который построили призраки / Winchester: The House that Ghosts Built
Год выпуска: 2018
Страна: Австралия, США
Жанр: ужасы, фэнтези, триллер, детектив, биография
Продолжительность: 01:39:30
Перевод:

#1: Дублированный | iTunes
#2: Профессиональный (многоголосый) | HDRezka studio

Субтитры: Русские (Forced, 2xFull), английские

Режиссер: Майкл Спириг, Питер Спириг

rating

В ролях:

Хелен Миррен, Сара Снук, Джейсон Кларк, Энгус Сэмпсон, Имон Фэррен, Лаура Брент, Тайлер Коппин, Джеффри В. Дженкинс

Описание:

Сара Винчестер, наследница знаменитой оружейной компании, живет одна в грандиозном семиэтажном здании, архитектура которого не поддается логике, а коридоры подобны лабиринтам. По распоряжению безутешной вдовы особняк постоянно перестраивается и бесконечно воздвигаются новые стены. Но строит она не для себя, не для своей племянницы или талантливого доктора Эрика Прайса, который приехал в особняк по ее приглашению. Сара строит ловушку для сотен мстительных призраков, и самые страшные из них хотят расправиться с кланом Винчестеров.

Качество: BDRip 720p
Формат: MKV

Видео: MPEG-4 AVC, 1280x536, 4500 Kbit/s, 23.976 fps
Аудио#1: 48 kHz, AC3, 5.1, 384 Kbps | iTunes | RUS |
Аудио#2: 48 kHz, AC3, 2.0, 192 Kbps | HDRezka Studio | RUS |
Аудио#3: 48 kHz, AC3, 5.1, 384 Kbps | iTunes | UKR |скриншот  
Аудио#4: 48 kHz, AC3, 5.1, 640 Kbps | Оригинал | ENG |
скриншот  
скриншот   скриншот   скриншот   скриншот   скриншот  

General
Unique ID : 209553356946231617119490755823130255983 (0x9DA6822DA4AF203ABA726D23233E226F)
Complete name : C:Video111Winchester.2018.BDRip.720p.ExKinoRay.mkv
Format : Matroska
Format version : Version 4 / Version 2
File size : 4.24 GiB
Duration : 1 h 39 min
Overall bit rate : 6 098 kb/s
Movie name : Winchester: The House that Ghosts Built 2018 from ExKinoRay
Encoded date : UTC 2018-05-07 18:38:03
Writing application : mkvmerge v7.3.0 ('Nouages') 64bit built on Oct 22 2014 18:53:34
Writing library : libebml v1.3.0 + libmatroska v1.4.1

Video
ID : 1
Format : AVC
Format/Info : Advanced Video Codec
Format profile : High@L4.1
Format settings : CABAC / 12 Ref Frames
Format settings, CABAC : Yes
Format settings, ReFrames : 12 frames
Codec ID : V_MPEG4/ISO/AVC
Duration : 1 h 39 min
Bit rate : 4 500 kb/s
Width : 1 280 pixels
Height : 536 pixels
Display aspect ratio : 2.40:1
Frame rate mode : Constant
Frame rate : 23.976 (24000/1001) FPS
Color space : YUV
Chroma subsampling : 4:2:0
Bit depth : 8 bits
Scan type : Progressive
Bits/(Pixel*Frame) : 0.274
Stream size : 3.12 GiB (74%)
Writing library : x264 core 148 r2705 3f5ed56
Encoding settings : cabac=1 / ref=12 / deblock=1:-2:-2 / analyse=0x3:0x133 / me=umh / subme=11 / psy=1 / psy_rd=1.05:0.05 / mixed_ref=1 / me_range=32 / chroma_me=1 / trellis=2 / 8x8dct=1 / cqm=0 / deadzone=21,11 / fast_pskip=0 / chroma_qp_offset=-3 / threads=12 / lookahead_threads=2 / sliced_threads=0 / nr=0 / decimate=0 / interlaced=0 / bluray_compat=0 / constrained_intra=0 / bframes=8 / b_pyramid=2 / b_adapt=2 / b_bias=0 / direct=3 / weightb=1 / open_gop=0 / weightp=2 / keyint=240 / keyint_min=23 / scenecut=40 / intra_refresh=0 / rc_lookahead=50 / rc=2pass / mbtree=0 / bitrate=4500 / ratetol=1.0 / qcomp=0.60 / qpmin=0 / qpmax=51 / qpstep=4 / cplxblur=20.0 / qblur=0.5 / vbv_maxrate=50000 / vbv_bufsize=62500 / nal_hrd=none / filler=0 / ip_ratio=1.40 / pb_ratio=1.30 / aq=3:0.80
Language : English
Default : Yes
Forced : No

Audio #1
ID : 2
Format : AC-3
Format/Info : Audio Coding 3
Codec ID : A_AC3
Duration : 1 h 39 min
Bit rate mode : Constant
Bit rate : 384 kb/s
Channel(s) : 6 channels
Channel positions : Front: L C R, Side: L R, LFE
Sampling rate : 48.0 kHz
Frame rate : 31.250 FPS (1536 SPF)
Bit depth : 16 bits
Compression mode : Lossy
Stream size : 273 MiB (6%)
Title : iTunes
Language : Russian
Service kind : Complete Main
Default : Yes
Forced : Yes

Audio #2
ID : 3
Format : AC-3
Format/Info : Audio Coding 3
Codec ID : A_AC3
Duration : 1 h 39 min
Bit rate mode : Constant
Bit rate : 192 kb/s
Channel(s) : 2 channels
Channel positions : Front: L R
Sampling rate : 48.0 kHz
Frame rate : 31.250 FPS (1536 SPF)
Bit depth : 16 bits
Compression mode : Lossy
Stream size : 137 MiB (3%)
Title : MVO [HDRezka]
Language : Russian
Service kind : Complete Main
Default : No
Forced : No

Audio #3
ID : 4
Format : AC-3
Format/Info : Audio Coding 3
Codec ID : A_AC3
Duration : 1 h 39 min
Bit rate mode : Constant
Bit rate : 384 kb/s
Channel(s) : 6 channels
Channel positions : Front: L C R, Side: L R, LFE
Sampling rate : 48.0 kHz
Frame rate : 31.250 FPS (1536 SPF)
Bit depth : 16 bits
Compression mode : Lossy
Stream size : 273 MiB (6%)
Title : iTunes
Language : Ukrainian
Service kind : Complete Main
Default : No
Forced : No

Audio #4
ID : 5
Format : AC-3
Format/Info : Audio Coding 3
Codec ID : A_AC3
Duration : 1 h 39 min
Bit rate mode : Constant
Bit rate : 640 kb/s
Channel(s) : 6 channels
Channel positions : Front: L C R, Side: L R, LFE
Sampling rate : 48.0 kHz
Frame rate : 31.250 FPS (1536 SPF)
Bit depth : 16 bits
Compression mode : Lossy
Stream size : 456 MiB (10%)
Title : Original
Language : English
Service kind : Complete Main
Default : No
Forced : No

Text #1
ID : 6
Format : UTF-8
Codec ID : S_TEXT/UTF8
Codec ID/Info : UTF-8 Plain Text
Duration : 1 h 30 min
Bit rate : 76 b/s
Count of elements : 1034
Stream size : 50.4 KiB (0%)
Title : Full [Focs]
Language : Russian
Default : No
Forced : No

Text #2
ID : 7
Format : UTF-8
Codec ID : S_TEXT/UTF8
Codec ID/Info : UTF-8 Plain Text
Duration : 1 h 29 min
Bit rate : 78 b/s
Count of elements : 1051
Stream size : 51.9 KiB (0%)
Title : Full v.2
Language : Russian
Default : No
Forced : No

Text #3
ID : 8
Format : UTF-8
Codec ID : S_TEXT/UTF8
Codec ID/Info : UTF-8 Plain Text
Duration : 1 h 26 min
Bit rate : 48 b/s
Count of elements : 1051
Stream size : 30.8 KiB (0%)
Title : Full
Language : English
Default : No
Forced : No

Text #4
ID : 9
Format : UTF-8
Codec ID : S_TEXT/UTF8
Codec ID/Info : UTF-8 Plain Text
Duration : 1 h 26 min
Bit rate : 50 b/s
Count of elements : 1154
Stream size : 32.2 KiB (0%)
Title : SDH
Language : English
Default : No
Forced : No

Text #5
ID : 10
Format : UTF-8
Codec ID : S_TEXT/UTF8
Codec ID/Info : UTF-8 Plain Text
Duration : 1 h 26 min
Bit rate : 73 b/s
Count of elements : 1154
Stream size : 46.5 KiB (0%)
Title : SDH Colored
Language : English
Default : No
Forced : No

Menu
00:00:00.000 : en:00:00:00.000
00:04:46.286 : en:00:04:46.286
00:10:01.601 : en:00:10:01.601
00:14:38.878 : en:00:14:38.878
00:21:21.280 : en:00:21:21.280
00:27:20.639 : en:00:27:20.639
00:35:53.151 : en:00:35:53.151
00:41:11.469 : en:00:41:11.469
00:50:03.000 : en:00:50:03.000
00:58:59.536 : en:00:58:59.536
01:06:16.973 : en:01:06:16.973
01:11:19.275 : en:01:11:19.275
01:16:00.556 : en:01:16:00.556
01:21:50.739 : en:01:21:50.739
01:27:04.219 : en:01:27:04.219
01:30:55.450 : en:01:30:55.450

pb.wtf



Скачать Винчестер. Дом, который построили призраки через торрент https://pic1.kartinco.top/images/11/oz4f5.jpg Скачать фильм Винчестер. Дом, который построили призраки через торрент бесплантно в хорошем качестве Описание: Сара Винчестер, наследница знаменитой оружейной компании, живет одна в грандиозном семиэтажном здании, архитектура которого не ... 9.4 10 8
Торрент: Зарегистрирован [2018-05-07 19:15] · скачан: 313 раз
Статус: √ проверено
Размер: 4.24 GB
Как cкачать? Как скачать Винчестер. Дом, который построили призраки через торрент | UTorrent

% Раздел Тема Автор DL S | L
Фильмы [HD 720p, 1080p] (Хороший звук DUB, MVO) [ 8.06 GB ] Винчестер. Дом который построили призраки / Winchester: The House that Ghosts Built [2018 биография BDRip 1080p] MVO [HDrezka Studio] + bober100 Скачать
1 | 0
Фильмы 2018 [DVDrip, WEB-DLRip, HDrip] (DUB, MVO) [ 1.57 GB ] Винчестер. Дом который построили призраки / Winchester: The House that Ghosts Built [2018 биография BDRip-AVC] MVO [HDrezka Studio] + bober100 Скачать
1 | 0
Фильмы (Blu-ray, BD-Remux, HDDVD) [ 20.28 GB ] Винчестер. Дом который построили призраки / Winchester: The House that Ghosts Built [2018 биография BD Remux 1080p] MVO [HDrezka Studio] + bober100 Скачать
1 | 0
Фильмы [HD 720p, 1080p] (Хороший звук DUB, MVO) [ 4.34 GB ] Винчестер. Дом который построили призраки / Winchester: The House that Ghosts Built [2018 биография BDRip 1080p] MVO [PIRATBIT] DEVI Скачать
2 | 0
Фильмы 2018 [DVDrip, WEB-DLRip, HDrip] (DUB, MVO) [ 1.3 GB ] Винчестер. Дом который построили призраки / Winchester: The House that Ghosts Built [2018 биография BDRip] MVO [PIRATBIT] DEVI Скачать
1 | 0

28-11-2019 20:33  

Отключить всю рекламу на сайте

    Дорогой пользователь! Огромная просьба, поблагодарите релизера, оцените раздачу и оставьте свои комментарий, если Вы скачали Винчестер. Дом, который построили призраки через торрент бесплатно! Внесите свою лепту в развитие PiratBit!
    Комментировать посты могут только пользователи прошедшие не сложную регистрацию
    Показать сообщения:    

    Винчестер. Дом, который построили призраки через торрент
    Скачать бесплатно Винчестер. Дом, который построили призраки
    Винчестер. Дом, который построили призраки скачать торрент
    Винчестер. Дом, который построили призраки смотреть онлайн
    Cкачать фильм Винчестер. Дом, который построили призраки бесплатно
    Винчестер. Дом, который построили призраки скачать торрент в хорошем качестве
    Винчестер. Дом, который построили призраки смотреть онлайн бесплатно в хорошем качестве


    Вы не можете начинать темы
    Вы не можете отвечать на сообщения
    Вы не можете редактировать свои сообщения
    Вы не можете удалять свои сообщения
    Вы не можете голосовать в опросах
    Вы не можете прикреплять файлы к сообщениям
    Вы можете скачивать файлы