2 сезон

iTunes

MVO

1

2 сезон

iTunes

iTunes

1 сезон

RePack

30

Ultimate

ВАЖНО

ИГРА 18+

pack

RePack

MK11
pack

Легкие деньги

RePack

jed

RePack

fifa19

RePack

RDR2

RePack

NEED FOR SPEED™ PAYBACK

4 сезон

9 сезон

Бесстыжие 9 сезон

Все сериалы

все сериалы на PB.wtf

RePack

FAR CRY 5

Anonymous, добрый день, мы не успеваем собрать деньги на оплату серверов за декабрь и январь, помогите нам пожалуйста в это трудное время. В качестве благодарности мы отключим Вам всю рекламу на сайте (укажите свой ник в строку Ваше имя)!

×
  
Magnet ссылка

Уиджи: Проклятие Вероники / Verónica (Пако Пласа) [2017, ужасы, драма, BDRip 720p] DUB [iTunes] pb.wtf

Уиджи: Проклятие Вероники через торрент pb.wtf

Размер: 5.93 GB | Добавлен: 2 года 8 мес. назад | Торрент скачан:221 раз
Скачать  

08-05-2018 01:26 Уиджи: Проклятие Вероники Скачать торрент  

Уиджи: Проклятие Вероники / Verónica
Год выпуска: 2017
Страна: Испания
Жанр: ужасы, драма
Продолжительность: 01:45:22
Перевод: Дублированный | iTunes
Субтитры: Английские

Режиссер: Пако Пласа

rating

В ролях:

Сандра Эскасена, Бруна Гонсалес, Клаудия Плейсер, Иван Чаверо, Ана Торрент, Консуэло Трухильо, Анхела Фабиан, Карла Кампра, Чема Адева, Миранда Гас

Описание:

Уиджи - это доска для спиритических сеансов вызова душ умерших. Ее называют доской Дьявола, потому что общение с загробным миром не обходится для живого человека без последствий. Тот, кто берет в руки Уиджи, должен знать, что она обладает страшной властью открывать врата чудовищному злу, противостоять которому практически невозможно.

Вероника, красивая и веселая старшеклассница, даже представить не могла, чем для нее закончится то, что она считала невинной игрой...

Качество: BDRip 720p
Формат: MKV

Видео: MPEG-4 AVC, 1280x692, 7030 Kbit/s, 24.000 fps
Аудио#1: 48 kHz, AC3, 5.1, 384 Kbps | iTunes | RUS |
Аудио#2: 48 kHz, AC3, 5.1, 640 Kbps | Оригинал | SPA |
скриншот  
скриншот   скриншот   скриншот   скриншот   скриншот  

General
Unique ID : 232666562100925198593874985627853816226 (0xAF09F32CB2925C0183960929B73081A2)
Complete name : C:Video111Veronica.2017.BDRip.720p.ExKinoRay.mkv
Format : Matroska
Format version : Version 4 / Version 2
File size : 5.93 GiB
Duration : 1 h 45 min
Overall bit rate : 8 056 kb/s
Movie name : Veronica 2017 from ExKinoRay
Encoded date : UTC 2018-05-07 20:49:03
Writing application : mkvmerge v7.3.0 ('Nouages') 64bit built on Oct 22 2014 18:53:34
Writing library : libebml v1.3.0 + libmatroska v1.4.1

Video
ID : 1
Format : AVC
Format/Info : Advanced Video Codec
Format profile : High@L4.1
Format settings : CABAC / 9 Ref Frames
Format settings, CABAC : Yes
Format settings, ReFrames : 9 frames
Codec ID : V_MPEG4/ISO/AVC
Duration : 1 h 45 min
Bit rate : 7 030 kb/s
Width : 1 280 pixels
Height : 692 pixels
Display aspect ratio : 1.85:1
Frame rate mode : Constant
Frame rate : 24.000 FPS
Color space : YUV
Chroma subsampling : 4:2:0
Bit depth : 8 bits
Scan type : Progressive
Bits/(Pixel*Frame) : 0.331
Stream size : 5.17 GiB (87%)
Writing library : x264 core 155 r2901 7d0ff22
Encoding settings : cabac=1 / ref=9 / deblock=1:-3:-3 / analyse=0x3:0x113 / me=umh / subme=10 / psy=1 / psy_rd=1.03:0.00 / mixed_ref=1 / me_range=32 / chroma_me=1 / trellis=2 / 8x8dct=1 / cqm=0 / deadzone=21,11 / fast_pskip=0 / chroma_qp_offset=-2 / threads=22 / lookahead_threads=5 / sliced_threads=0 / nr=0 / decimate=0 / interlaced=0 / bluray_compat=0 / constrained_intra=0 / bframes=10 / b_pyramid=2 / b_adapt=2 / b_bias=0 / direct=3 / weightb=1 / open_gop=0 / weightp=2 / keyint=240 / keyint_min=24 / scenecut=40 / intra_refresh=0 / rc_lookahead=60 / rc=crf / mbtree=0 / crf=15.8 / qcomp=0.75 / qpmin=0 / qpmax=69 / qpstep=4 / vbv_maxrate=62500 / vbv_bufsize=78125 / crf_max=0.0 / nal_hrd=none / filler=0 / ip_ratio=1.40 / pb_ratio=1.30 / aq=3:0.85
Language : English
Default : Yes
Forced : No
Color range : Limited
Color primaries : BT.709
Transfer characteristics : BT.709
Matrix coefficients : BT.709

Audio #1
ID : 2
Format : AC-3
Format/Info : Audio Coding 3
Codec ID : A_AC3
Duration : 1 h 45 min
Bit rate mode : Constant
Bit rate : 384 kb/s
Channel(s) : 6 channels
Channel positions : Front: L C R, Side: L R, LFE
Sampling rate : 48.0 kHz
Frame rate : 31.250 FPS (1536 SPF)
Bit depth : 16 bits
Compression mode : Lossy
Stream size : 289 MiB (5%)
Title : iTunes
Language : Russian
Service kind : Complete Main
Default : Yes
Forced : Yes

Audio #2
ID : 3
Format : AC-3
Format/Info : Audio Coding 3
Codec ID : A_AC3
Duration : 1 h 45 min
Bit rate mode : Constant
Bit rate : 640 kb/s
Channel(s) : 6 channels
Channel positions : Front: L C R, Side: L R, LFE
Sampling rate : 48.0 kHz
Frame rate : 31.250 FPS (1536 SPF)
Bit depth : 16 bits
Compression mode : Lossy
Stream size : 482 MiB (8%)
Title : Original
Language : Spanish
Service kind : Complete Main
Default : No
Forced : No

Text
ID : 4
Format : UTF-8
Codec ID : S_TEXT/UTF8
Codec ID/Info : UTF-8 Plain Text
Duration : 1 h 39 min
Bit rate : 40 b/s
Count of elements : 1052
Stream size : 29.5 KiB (0%)
Title : Full
Language : English
Default : No
Forced : No

Menu
00:00:00.000 : en:Chapter 1
00:07:50.375 : en:Chapter 2
00:17:37.542 : en:Chapter 3
00:27:09.458 : en:Chapter 4
00:35:07.833 : en:Chapter 5
00:42:55.333 : en:Chapter 6
00:53:43.167 : en:Chapter 7
01:02:12.542 : en:Chapter 8
01:10:09.542 : en:Chapter 9
01:18:47.833 : en:Chapter 10
01:27:14.583 : en:Chapter 11
01:37:33.875 : en:Chapter 12

pb.wtf



Скачать Уиджи: Проклятие Вероники через торрент http://pic1.kartinco.top/images/11/xpg9s.jpg Скачать фильм Уиджи: Проклятие Вероники через торрент бесплантно в хорошем качестве Описание: Уиджи - это доска для спиритических сеансов вызова душ умерших. Ее называют доской Дьявола, потому что общение с загробным миром ... 10 10 4
Торрент: Зарегистрирован [2018-05-08 01:26] · скачан: 221 раз
Статус: √ проверено
Размер: 5.93 GB
Как cкачать? Как скачать Уиджи: Проклятие Вероники через торрент | UTorrent

% Раздел Тема Автор DL S | L
Фильмы (Blu-ray, BD-Remux, HDDVD) [ 26.43 GB ] Уиджи: Проклятие Вероники / Verónica [2017 BD Remux 1080p] bober100 Скачать
1 | 0
Фильмы 2017 [DVDrip, WEB-DLRip, HDrip] (DUB, MVO) [ 1.79 GB ] Уиджи: Проклятие Вероники / Verónica [2017 BDRip-AVC] bober100 Скачать
1 | 0
Фильмы 2017 [DVDrip, WEB-DLRip, HDrip] (DUB, MVO) [ 1.41 GB ] Уиджи: Проклятие Вероники / Verónica [2017 BDRip] - Twi7ter Скачать
1 | 0
Фильмы 2017 [DVDrip, WEB-DLRip, HDrip] (DUB, MVO) [ 1.41 GB ] Уиджи: Проклятие Вероники / Verónica [2017 BDRip-AVC] Dub sergey82 Скачать
1 | 0
Фильмы 2017 [DVDrip, WEB-DLRip, HDrip] (DUB, MVO) [ 2.05 GB ] Уиджи: Проклятие Вероники / Verónica [2017 HDRip] bober100 Скачать
1 | 0
Фильмы [HD 720p, 1080p] (Хороший звук DUB, MVO) [ 10.44 GB ] Уиджи: Проклятие Вероники / Verónica [2017 BDRip 1080p] bober100 Скачать
1 | 0
Фильмы 2017 [DVDrip, WEB-DLRip, HDrip] (DUB, MVO) [ 1.41 GB ] Уиджи: Проклятие Вероники / Verónica [2017 BDRip] bober100 Скачать
1 | 0

28-11-2019 20:33  

Отключить всю рекламу на сайте

    Дорогой пользователь! Огромная просьба, поблагодарите релизера, оцените раздачу и оставьте свои комментарий, если Вы скачали Уиджи: Проклятие Вероники через торрент бесплатно! Внесите свою лепту в развитие PiratBit!
    Комментировать посты могут только пользователи прошедшие не сложную регистрацию
    Показать сообщения:    

    Уиджи: Проклятие Вероники через торрент
    Скачать бесплатно Уиджи: Проклятие Вероники
    Уиджи: Проклятие Вероники скачать торрент
    Уиджи: Проклятие Вероники смотреть онлайн
    Cкачать фильм Уиджи: Проклятие Вероники бесплатно
    Уиджи: Проклятие Вероники скачать торрент в хорошем качестве
    Уиджи: Проклятие Вероники смотреть онлайн бесплатно в хорошем качестве


    Вы не можете начинать темы
    Вы не можете отвечать на сообщения
    Вы не можете редактировать свои сообщения
    Вы не можете удалять свои сообщения
    Вы не можете голосовать в опросах
    Вы не можете прикреплять файлы к сообщениям
    Вы можете скачивать файлы