новый адрес
Ссылка на приватное зеркало всего за 1$. Внимание количество ограничено!!!

iTunes

1+1

iTunes

мы

iTunes

1

iTunes

Чернобыль

iTunes

Ральф против интернета

Лицензия

ПШазам

Лицензия

Оно 2

Лицензия

30
pack

Вам бонус

ВАЖНО

!!Акция!!

Alien_RageХит недели

RePack

Resident Evil 21

ИГРА 18+

pack

RePack

jed

!!Акция!!

Alien_Rage

RePack

fifa19

RePack

Assassins Creed: Odyssey

RePack

NEED FOR SPEED™ PAYBACK

3 сезон

9 сезон

Бесстыжие 9 сезон

Все сериалы

все сериалы на PB.wtf

RePack

FAR CRY 5
Ребята, катастрофически не хватает 1900р. для оплаты серверов за Октябрь (всвязи с блокировками трафик упал в 3 раза), 1-2р., выручайте.
  

Винчестер. Дом, который построили призраки / Winchester: The House that Ghosts Built (Майкл Спириг, Питер Спириг) [2018, ужасы, фэнтези, триллер, детектив, биография, BDRip-AVC] MVO [HDrezka Studio] +DUB [iTunes] pb.wtf

Винчестер. Дом, который построили призраки через торрент pb.wtf

Раздают: 1 [ 0 KB/s ]
Размер: 1.57 GB | Добавлен: 1 год 6 мес. назад | Торрент скачан:593 раза
Скачать  

08-05-2018 03:08 Винчестер. Дом, который построили призраки Скачать торрент  

Винчестер. Дом, который построили призраки / Winchester: The House that Ghosts Built«Самый зловещий особняк в истории человечества»
Год выпуска: 2018
Страна: Австралия, США
Жанр: ужасы, фэнтези, триллер, детектив, биография
Продолжительность: 01:39:30
Перевод:

#1: Дублированный | iTunes
#2: Профессиональный (многоголосый) | HDRezka studio

Субтитры: английские

Режиссер: Майкл Спириг, Питер Спириг

rating

В ролях:

Хелен Миррен, Сара Снук, Джейсон Кларк, Энгус Сэмпсон, Имон Фэррен, Лаура Брент, Тайлер Коппин, Джеффри В. Дженкинс

Описание:

Сара Винчестер, наследница знаменитой оружейной компании, живет одна в грандиозном семиэтажном здании, архитектура которого не поддается логике, а коридоры подобны лабиринтам. По распоряжению безутешной вдовы особняк постоянно перестраивается и бесконечно воздвигаются новые стены. Но строит она не для себя, не для своей племянницы или талантливого доктора Эрика Прайса, который приехал в особняк по ее приглашению. Сара строит ловушку для сотен мстительных призраков, и самые страшные из них хотят расправиться с кланом Винчестеров.

Качество: BDRip-AVC
Формат: MKV

Видео: 1024x428 (2.40:1), 23,976 fps, x264 ~1 238 kbps avg, 0.118 bit/pixel
Аудио#1: 48 kHz, AC3 Dolby Digital, 3/2 (L,C,R,l,r) + LFE ch, ~384.00 kbps avg | RUS (iTunes)
Аудио#2: 48 kHz, AC3 Dolby Digital, 2 (L,R) ch, ~192.00 kbps avg | RUS (HDRezka)
Аудио#3: 48 kHz, AC3 Dolby Digital, 3/2 (L,C,R,l,r) + LFE ch, ~448.00 kbps avg | ENG
скриншот   скриншот   скриншот   скриншот  

Общее
Уникальный идентификатор : 237887801963898661366759931471670778018 (0xB2F7862CC5BF08DC931D107A8CAB98A2)
Полное имя : E:OlLanDGroupWinchester.2018.BDRip(AVC).OlLanDGroup.mkv
Формат : Matroska
Версия формата : Version 4 / Version 2
Размер файла : 1,57 Гбайт
Продолжительность : 1 ч. 39 м.
Общий поток : 2264 Кбит/сек
Название фильма : Winchester.2018 #TorpedoUK#
Дата кодирования : UTC 2018-05-08 02:27:05
Программа кодирования : mkvmerge v8.3.0 ('Over the Horizon') 64bit
Библиотека кодирования : libebml v1.3.1 + libmatroska v1.4.2
Обложка : Yes
Attachments : small_cover.jpg / small_cover_land.jpg / cover.jpg / cover_land.jpg

Видео
Идентификатор : 1
Формат : AVC
Формат/Информация : Advanced Video Codec
Профиль формата : High@L4.1
Параметр CABAC формата : Да
Параметр ReFrames формата : 10 кадров
Идентификатор кодека : V_MPEG4/ISO/AVC
Продолжительность : 1 ч. 39 м.
Битрейт : 1238 Кбит/сек
Ширина : 1024 пикселя
Высота : 428 пикселей
Соотношение сторон : 2,40:1
Режим частоты кадров : Постоянный
Частота кадров : 23,976 (24000/1001) кадра/сек
Цветовое пространство : YUV
Субдискретизация насыщенности : 4:2:0
Битовая глубина : 8 бит
Тип развёртки : Прогрессивная
Бит/(Пиксели*Кадры) : 0.118
Размер потока : 881 Мбайт (55%)
Библиотека кодирования : x264 core 146 r2538 121396c
Настройки программы : cabac=1 / ref=10 / deblock=1:-2:-3 / analyse=0x3:0x133 / me=umh / subme=11 / psy=1 / psy_rd=0.98:0.06 / mixed_ref=1 / me_range=48 / chroma_me=1 / trellis=2 / 8x8dct=1 / cqm=0 / deadzone=21,11 / fast_pskip=1 / chroma_qp_offset=-3 / threads=6 / lookahead_threads=1 / sliced_threads=0 / nr=0 / decimate=1 / interlaced=0 / bluray_compat=0 / constrained_intra=0 / bframes=10 / b_pyramid=2 / b_adapt=2 / b_bias=0 / direct=3 / weightb=1 / open_gop=0 / weightp=2 / keyint=240 / keyint_min=23 / scenecut=40 / intra_refresh=0 / rc_lookahead=40 / rc=2pass / mbtree=0 / bitrate=1238 / ratetol=1.0 / qcomp=0.60 / qpmin=0 / qpmax=69 / qpstep=4 / cplxblur=20.0 / qblur=0.5 / vbv_maxrate=50000 / vbv_bufsize=62500 / nal_hrd=none / filler=0 / ip_ratio=1.40 / pb_ratio=1.30 / aq=1:1.00
Язык : English
Default : Да
Forced : Нет

Аудио #1
Идентификатор : 2
Формат : AC-3
Формат/Информация : Audio Coding 3
Расширение режима : CM (complete main)
Параметр Endianness формата : Big
Идентификатор кодека : A_AC3
Продолжительность : 1 ч. 39 м.
Вид битрейта : Постоянный
Битрейт : 384 Кбит/сек
Каналы : 6 каналов
Расположение каналов : Front: L C R, Side: L R, LFE
Частота : 48,0 КГц
Частота кадров : 31,250 кадров/сек (1536 spf)
Битовая глубина : 16 бит
Метод сжатия : С потерями
Размер потока : 273 Мбайт (17%)
Заголовок : iTunes
Язык : Russian
Default : Да
Forced : Нет

Аудио #2
Идентификатор : 3
Формат : AC-3
Формат/Информация : Audio Coding 3
Расширение режима : CM (complete main)
Параметр Endianness формата : Big
Идентификатор кодека : A_AC3
Продолжительность : 1 ч. 39 м.
Вид битрейта : Постоянный
Битрейт : 192 Кбит/сек
Каналы : 2 канала
Расположение каналов : Front: L R
Частота : 48,0 КГц
Частота кадров : 31,250 кадров/сек (1536 spf)
Битовая глубина : 16 бит
Метод сжатия : С потерями
Размер потока : 137 Мбайт (8%)
Заголовок : MVO (HDRezka)
Язык : Russian
Default : Нет
Forced : Нет

Аудио #3
Идентификатор : 4
Формат : AC-3
Формат/Информация : Audio Coding 3
Расширение режима : CM (complete main)
Параметр Endianness формата : Big
Идентификатор кодека : A_AC3
Продолжительность : 1 ч. 39 м.
Вид битрейта : Постоянный
Битрейт : 448 Кбит/сек
Каналы : 6 каналов
Расположение каналов : Front: L C R, Side: L R, LFE
Частота : 48,0 КГц
Частота кадров : 31,250 кадров/сек (1536 spf)
Битовая глубина : 16 бит
Метод сжатия : С потерями
Размер потока : 319 Мбайт (20%)
Заголовок : Original
Язык : English
Default : Нет
Forced : Нет

Текст #1
Идентификатор : 5
Формат : UTF-8
Идентификатор кодека : S_TEXT/UTF8
Идентификатор кодека/Информация : UTF-8 Plain Text
Продолжительность : 1 ч. 29 м.
Битрейт : 79 бит/сек
Count of elements : 1051
Размер потока : 52,1 Кбайт (0%)
Заголовок : Full
Язык : Russian
Default : Нет
Forced : Нет

Текст #2
Идентификатор : 6
Формат : UTF-8
Идентификатор кодека : S_TEXT/UTF8
Идентификатор кодека/Информация : UTF-8 Plain Text
Продолжительность : 1 ч. 26 м.
Битрейт : 48 бит/сек
Count of elements : 1051
Размер потока : 30,8 Кбайт (0%)
Заголовок : Full
Язык : English
Default : Нет
Forced : Нет

Текст #3
Идентификатор : 7
Формат : UTF-8
Идентификатор кодека : S_TEXT/UTF8
Идентификатор кодека/Информация : UTF-8 Plain Text
Продолжительность : 1 ч. 30 м.
Битрейт : 48 бит/сек
Count of elements : 1156
Размер потока : 32,3 Кбайт (0%)
Заголовок : SDH
Язык : English
Default : Нет
Forced : Нет

Меню
00:00:00.000 : en:Chapter 01
00:04:46.286 : en:Chapter 02
00:10:01.267 : en:Chapter 03
00:14:38.794 : en:Chapter 04
00:21:21.280 : en:Chapter 05
00:27:20.639 : en:Chapter 06
00:35:52.900 : en:Chapter 07
00:41:11.427 : en:Chapter 08
00:50:03.000 : en:Chapter 09
00:58:59.536 : en:Chapter 10
01:06:16.973 : en:Chapter 11
01:11:19.108 : en:Chapter 12
01:16:00.556 : en:Chapter 13
01:21:50.739 : en:Chapter 14
01:27:04.052 : en:Chapter 15
01:30:55.074 : en:Chapter 16

pb.wtf



Скачать Винчестер. Дом, который построили призраки через торрент http://lostpix.com/img/2018-04/28/36gqepgbyrdf2c8hrpdm80ox9.jpg Скачать фильм Винчестер. Дом, который построили призраки через торрент бесплантно в хорошем качестве Описание: Сара Винчестер, наследница знаменитой оружейной компании, живет одна в грандиозном семиэтажном здании, архитектура которого не ... 10 10 5
Торрент: Зарегистрирован [2018-05-08 03:08] · скачан: 593 раз
Статус: √ проверено
Размер: 1.57 GB
Как cкачать? Как скачать Винчестер. Дом, который построили призраки через торрент | qTorrent

% Раздел Тема Автор DL S | L
Фильмы [HD 720p, 1080p] (Хороший звук DUB, MVO) [ 8.06 GB ] Винчестер. Дом который построили призраки / Winchester: The House that Ghosts Built [2018 биография BDRip 1080p] MVO [HDrezka Studio] + bober100 Скачать
1 | 0
Фильмы (Blu-ray, BD-Remux, HDDVD) [ 20.28 GB ] Винчестер. Дом который построили призраки / Winchester: The House that Ghosts Built [2018 биография BD Remux 1080p] MVO [HDrezka Studio] + bober100 Скачать
1 | 0
Фильмы [HD 720p, 1080p] (Хороший звук DUB, MVO) [ 4.24 GB ] Винчестер. Дом который построили призраки / Winchester: The House that Ghosts Built [2018 биография BDRip 720p] MVO [HDrezka Studio] + bober100 Скачать
1 | 0
Фильмы [HD 720p, 1080p] (Хороший звук DUB, MVO) [ 4.34 GB ] Винчестер. Дом который построили призраки / Winchester: The House that Ghosts Built [2018 биография BDRip 1080p] MVO [PIRATBIT] DEVI Скачать
4 | 0
Фильмы 2018 [DVDrip, WEB-DLRip, HDrip] (DUB, MVO) [ 1.3 GB ] Винчестер. Дом который построили призраки / Winchester: The House that Ghosts Built [2018 биография BDRip] MVO [PIRATBIT] DEVI Скачать
3 | 0
Отключить всю рекламу на сайте
    Дорогой пользователь! Огромная просьба, поблагодарите релизера, оцените раздачу и оставьте свои комментарий, если Вы скачали Винчестер. Дом, который построили призраки через торрент бесплатно! Внесите свою лепту в развитие PiratBit!
    Комментировать посты могут только пользователи прошедшие не сложную регистрацию
    Показать сообщения:    

    Винчестер. Дом, который построили призраки через торрент
    Скачать бесплатно Винчестер. Дом, который построили призраки
    Винчестер. Дом, который построили призраки скачать торрент
    Винчестер. Дом, который построили призраки смотреть онлайн
    Cкачать фильм Винчестер. Дом, который построили призраки бесплатно
    Винчестер. Дом, который построили призраки скачать торрент в хорошем качестве
    Винчестер. Дом, который построили призраки смотреть онлайн бесплатно в хорошем качестве


    Вы не можете начинать темы
    Вы не можете отвечать на сообщения
    Вы не можете редактировать свои сообщения
    Вы не можете удалять свои сообщения
    Вы не можете голосовать в опросах
    Вы не можете прикреплять файлы к сообщениям
    Вы можете скачивать файлы