Ссылка на приватное зеркало нашего сайта всего за 1$. Внимание количество ограничено!!!

2 сезон

iTunes

1 сезон

1

2 сезон

2 сезон

iTunes

1 сезон

RePack

30

Ultimate

ВАЖНО

ИГРА 18+

pack

RePack

MK11
pack

Забери бонус

RePack

jed

!!Акция!!

Alien_Rage

RePack

fifa19

RePack

Assassins Creed: Odyssey

RePack

NEED FOR SPEED™ PAYBACK

4 сезон

9 сезон

Бесстыжие 9 сезон

Все сериалы

все сериалы на PB.wtf

RePack

FAR CRY 5
  

Последний человек на Земле / The Last Man on Earth / Сезон: 4 / Серии: 1-18 из 18 (Фил Лорд, Кристофер Миллер, Джейсон Уолинер) [2017, Комедия, фантастика, WEBRip 1080p] MVO [BaibaKo] pb.wtf

Последний человек на Земле через торрент pb.wtf

Размер: 16.7 GB | Добавлен: 2 года 6 мес. назад | Торрент скачан:42 раза
Скачать  

08-05-2018 09:34 Последний человек на Земле Скачать торрент  

Последний человек на Земле / The Last Man on Earth
Год выпуска: 2017
Страна: США
Жанр: Комедия, фантастика
Продолжительность: ~ 00:22:00 серия
Перевод: Профессиональный многоголосый |
Субтитры: отсутствуют

Режиссер: Фил Лорд, Кристофер Миллер, Джейсон Уолинер

rating

В ролях:


Уилл Форте (Phil Miller), Кристен Шаал (Carol Pilbasian), Дженьюэри Джонс (Melissa Shart), Мэл Родригез (Todd), Клеопатра Коулмэн (Erica), Мэри Стинберген (Gail Klosterman), Джейсон Судейкис (Mike Miller), Борис Коджо (Phil Miller #2), Марк Бун Джуниор (Pat Brown), Аланна Висенте (Computer), Александра Даддарио (Victoria), Джейкоб Тремблэ (Young Tandy)
Описание:

Фил Миллер последний человек на Земле в 2022 году, который ищет по всем США любые признаки человеческой жизни после неизвестного события, уничтожившего всех людей на Земле, включая его семью и сотрудников банка, где он работал.

Качество: WEBRip 1080p
Формат: MKV

Видео: MPEG-4 AVC, ~ 5040 Кбит/с, 1920x1080
Аудио#1: Русский (АС3, 6 ch, 384 Кбит/с)
Аудио#2: английский (АС3, 6 ch, 384 Кбит/с)
скриншот   скриншот   скриншот   скриншот  

Общее
Уникальный идентификатор : 245546660062458989996475563426851321524 (0xB8BA91087E6EE2518EB7284250D3F6B4)
Полное имя : F:\The.Last.Man.On.Earth.s04.HD1080p.WEBRip.Rus.Eng.BaibaKo.tv\The.Last.Man.On.Earth.s04e01.PROPER.HD1080p.WEBRip.Rus.Eng.BaibaKo.tv.mkv
Формат : Matroska
Версия формата : Version 4 / Version 2
Размер файла : 919 Мбайт
Продолжительность : 22 м. 7 с.
Общий поток : 5810 Кбит/сек
Дата кодирования : UTC 2017-10-23 16:18:03
Программа кодирования : mkvmerge v9.3.1 ('Mask Machine') 64bit
Библиотека кодирования : libebml v1.3.4 + libmatroska v1.4.5

Видео
Идентификатор : 1
Формат : AVC
Формат/Информация : Advanced Video Codec
Профиль формата : High@L4
Параметр CABAC формата : Да
Параметр RefFrames формата : 4 кадра
Идентификатор кодека : V_MPEG4/ISO/AVC
Продолжительность : 22 м. 7 с.
Битрейт : 5040 Кбит/сек
Ширина : 1920 пикселей
Высота : 1080 пикселей
Соотношение сторон : 16:9
Режим частоты кадров : Постоянный
Частота кадров : 23,976 (23976/1000) кадра/сек
Частота кадров в оригинале : 23,976 (24000/1001) кадра/сек
Цветовое пространство : YUV
Субдискретизация насыщенности : 4:2:0
Битовая глубина : 8 бит
Тип развёртки : Прогрессивная
Бит/(Пиксели*Кадры) : 0.101
Размер потока : 798 Мбайт (87%)
Библиотека кодирования : x264 core 148 r2744 b97ae06
Настройки программы : cabac=1 / ref=3 / deblock=1:0:0 / analyse=0x3:0x113 / me=hex / subme=7 / psy=1 / psy_rd=1.00:0.00 / mixed_ref=1 / me_range=16 / chroma_me=1 / trellis=1 / 8x8dct=1 / cqm=0 / deadzone=21,11 / fast_pskip=1 / chroma_qp_offset=-2 / threads=12 / lookahead_threads=2 / sliced_threads=0 / nr=0 / decimate=1 / interlaced=0 / bluray_compat=0 / constrained_intra=0 / bframes=3 / b_pyramid=2 / b_adapt=1 / b_bias=0 / direct=1 / weightb=1 / open_gop=0 / weightp=2 / keyint=240 / keyint_min=23 / scenecut=40 / intra_refresh=0 / rc_lookahead=40 / rc=crf / mbtree=1 / crf=18.0 / qcomp=0.60 / qpmin=0 / qpmax=69 / qpstep=4 / ip_ratio=1.40 / aq=1:1.00
Default : Нет
Forced : Нет

Аудио #1
Идентификатор : 2
Формат : AC-3
Формат/Информация : Audio Coding 3
Расширение режима : CM (complete main)
Параметр Endianness формата : Big
Идентификатор кодека : A_AC3
Продолжительность : 22 м. 7 с.
Вид битрейта : Постоянный
Битрейт : 384 Кбит/сек
Каналы : 2 канала
Расположение каналов : Front: L R
Частота : 48,0 КГц
Частота кадров : 31,250 кадров/сек (1536 spf)
Метод сжатия : С потерями
Размер потока : 60,8 Мбайт (7%)
Язык : Russian
Default : Да
Forced : Нет

Аудио #2
Идентификатор : 3
Формат : AC-3
Формат/Информация : Audio Coding 3
Расширение режима : CM (complete main)
Параметр Endianness формата : Big
Идентификатор кодека : A_AC3
Продолжительность : 22 м. 7 с.
Вид битрейта : Постоянный
Битрейт : 384 Кбит/сек
Каналы : 2 канала
Расположение каналов : Front: L R
Частота : 48,0 КГц
Частота кадров : 31,250 кадров/сек (1536 spf)
Метод сжатия : С потерями
Размер потока : 60,8 Мбайт (7%)
Язык : English
Default : Нет
Forced : Нет

pb.wtf



Скачать Последний человек на Земле через торрент http://pic1.kartinco.top/images/11/qo222.jpg Скачать фильм Последний человек на Земле через торрент бесплантно в хорошем качестве Описание: Фил Миллер последний человек на Земле в 2022 году, который ищет по всем США любые признаки человеческой жизни после неизвестного ... 10 10 2
Info! Золотая раздача, скачанное не засчитывается.
Торрент: Зарегистрирован [2018-05-08 09:34] · скачан: 42 раз
Статус: √ проверено
Размер: 16.7 GB
Как cкачать? Как скачать Последний человек на Земле через торрент | qTorrent

% Раздел Тема Автор DL S | L
Зарубежные сериалы [ 5.33 GB ] Последний человек на Земле / The Last Man on Earth / Сезон: 4 / Серии: 1-18 из 18 [2017 WEBRip] MVO [BaibaKo] bober100 Скачать
1 | 0
Зарубежные сериалы [ 12.3 GB ] Последний человек на Земле / The Last Man on Earth / Сезон: 4 / Серии 1-18 из 18 [2017 WEBRip 720p] MVO [BaibaKo] GEKADOL Скачать
1 | 0

28-11-2019 20:33  

Отключить всю рекламу на сайте

    Дорогой пользователь! Огромная просьба, поблагодарите релизера, оцените раздачу и оставьте свои комментарий, если Вы скачали Последний человек на Земле через торрент бесплатно! Внесите свою лепту в развитие PiratBit!
    Комментировать посты могут только пользователи прошедшие не сложную регистрацию
    Показать сообщения:    

    Последний человек на Земле через торрент
    Скачать бесплатно Последний человек на Земле
    Последний человек на Земле скачать торрент
    Последний человек на Земле смотреть онлайн
    Cкачать фильм Последний человек на Земле бесплатно
    Последний человек на Земле скачать торрент в хорошем качестве
    Последний человек на Земле смотреть онлайн бесплатно в хорошем качестве


    Вы не можете начинать темы
    Вы не можете отвечать на сообщения
    Вы не можете редактировать свои сообщения
    Вы не можете удалять свои сообщения
    Вы не можете голосовать в опросах
    Вы не можете прикреплять файлы к сообщениям
    Вы можете скачивать файлы