Всегда рабочее зеркало без VPN и Proxy просто перед .vidak.icu напиши любое слово или цифру, Пример http://eep3.vidak.icu

MVO

2 сезон

1 сезон

1

1 сезон

iTunes

2 сезон

13

1 сезон

Deluxe

pack

Рекомендуем

Пиратка

30

ВАЖНО

RePack

MK11

RePack

jed

RePack

fifa19

RePack

RDR2

RePack

NEED FOR SPEED™ PAYBACK

Кинопоиск HD

6 сезон

 Острые козырьки 6 сезон

Все сериалы

все сериалы на PB.wtf

RePack

FAR CRY 5

Anonymous, нам критически не хватает 5601 руб. на оплату серверов и переферии за Апрель, помоги нам пожалуйста, вся надежда только на тебя. В благодарность мы отключим тебе всю рекламу на сайте!

×
  
Magnet ссылка

Планета обезьян: Пенталогия – 40 лет эволюции / Planet of the Apes: 40-Year Evolution Collection (Франклин Дж. Шаффнер, Тед Пост, Дон Тейлор, Дж. Ли Томпсон) [1968-1973 г., фантастика, приключения, BDRip 1080p, HEVC (10bit), MVO] pb.wtf

Планета обезьян: Пенталогия – 40 лет эволюции через торрент pb.wtf

Размер: 19.32 GB | Добавлен: 4 года назад | Торрент скачан:40 раз
Смотреть онлайн Планета обезьян: Пенталогия – 40 лет эволюции | Скачать    Ребята, помогите собрать деньги на оплату серверов!!!

08-05-2018 12:56 Планета обезьян: Пенталогия – 40 лет эволюции Скачать торрент  

Планета обезьян: Пенталогия – 40 лет эволюции / Planet of the Apes: 40-Year Evolution Collection (1968-1973) BDRip 1080p [HEVC] 10bit

Год выпуска: 1968 / 1970 / 1971 / 1972 / 1973

Страна: США

Жанр: Фантастика, Боевик, Приключения

Перевод: Многоголосый закадровый

Режиссер:Франклин Дж. Шаффнер, Тед Пост, Дон Тейлор, Дж. Ли Томпсон
Доп. информация: - H.265/HEVC (High Efficiency Video Coding) - это новый стандарт кодирования видео.
- Стандарт H.265/HEVC является логическим продолжением стандарта H.264/AVC (Advanced Video Coding), и характеризуется более эффективными алгоритмами сжатия, а также поддержкой высокого разрешения вплоть до 8K UHD (8192x4320). Первая версия стандарта H.265 была опубликована в начале 2013 года.
- Рипы в фомате HEVC поддерживается не всеми аппаратными проигрывателями.
- Для корректного воспроизведения может потребоваться обновление ПО.
- Владельцам несовместимого железа просьба не беспокоить, есть альтернативные релизы.
Плaнета обезьян / Planet of the Apes
Год выпуска: 1968
Страна: США
Жанр: Фантастика, Приключения
Продолжительность: 01:52:03
Перевод: Многоголосый закадровый
Субтитры: Отсутствуют

Режиссер: Франклин Дж. Шаффнер

rating

В ролях: Чарлтон Хестон, Родди МакДауэлл, Ким Хантер, Морис Эванс, Джеймс Уитмор, Джеймс Дэйли, Линда Харрисон, Robert Gunner, Лу Вагнер, Вудроу Парфри

Описание: В 3978 году космический корабль землян терпит крушение на далекой планете. Выжившие в катастрофе астронавты удивляются, как она похожа на их дом. Вскоре они узнают, что планета населена разумными обезьянами и деградировавшими до животного состояния людьми. Обезьяны захватывают астронавтов в плен, но после продолжительных пыток один из них совершает побег вместе с симпатичной девушкой-шимпанзе, которая открывает ему страшные тайны.

Качество: BDRip 1080p
Формат: MKV
Видео кодек: H.265
Аудио кодек: АAC
Видео: 1920x816, ~5148 kbps
Аудио: AAC, 6 ch, 384 kbps

Релиз от: DSIO
File: J:\ФИЛЬМЫ\avdump\Планета обезьян - Planet of the Apes (1968)(1080p).mkv
Duration: 01:52:03 (6723.24)
Track #1: video
lang: Unknown (1)
codc: V_MPEGH/ISO/HEVC -> Unknown (1)
reso: 1920x816 -> Unknown (aka not common)
fram: 23.976 fps
rate: 5148 kbps (5147.74)
dura: 01:52:03 (6722.92)
size: 4.03 GB (4325981773)
Track #2: audio
lang: rus -> Russian (15)
codc: A_AAC -> AAC (9)
chan: 6 -> 5.1 Surround
samp: 48000 Hz
rate: 385 kbps (385.18)
dura: 01:52:03 (6723.18)
size: 308.71 MB (323701949)
Sizes: (check sanity)
disk: 4.33 GB (4651503940)
atts: 243.81 KB (249662)
trac: 338.28 MB (354716426) [based on track size]
bitr: 4.33 GB (4649671615) [based on bitrate]
tdif: 4.00 GB (4296537852) 92.36%
bdif: 1.51 MB (1582662) 0.03%
Общее
Уникальный идентификатор : 183492724550752455599797861157202492052 (0x8A0B69CCA6336566A819EE92807EFA94)
Полное имя : J:\ФИЛЬМЫ\Планета обезьян - Planet of the Apes\Планета обезьян - Planet of the Apes (1968)(1080p).mkv
Формат : Matroska
Версия формата : Version 4 / Version 2
Размер файла : 4,33 Гбайт
Продолжительность : 1 ч. 52 м.
Общий поток : 5535 Кбит/сек
Дата кодирования : UTC 2017-10-22 02:18:34
Программа кодирования : mkvmerge v16.0.0 ('Protest') 64-bit
Библиотека кодирования : libebml v1.3.5 + libmatroska v1.4.8
Обложка : Yes
Attachments : cover.jpg
Encoding Gui : Hybrid 2017.05.06.1

Видео
Идентификатор : 1
Формат : HEVC
Формат/Информация : High Efficiency Video Coding
Идентификатор кодека : V_MPEGH/ISO/HEVC
Продолжительность : 1 ч. 52 м.
Битрейт : 5148 Кбит/сек
Ширина : 1920 пикселей
Высота : 816 пикселей
Соотношение сторон : 2,35:1
Режим частоты кадров : Постоянный
Частота кадров : 23,976 (24000/1001) кадра/сек
Бит/(Пиксели*Кадры) : 0.137
Размер потока : 4,03 Гбайт (93%)
Язык : English
Default : Да
Forced : Да

Аудио
Идентификатор : 2
Формат : AAC
Формат/Информация : Advanced Audio Codec
Профиль формата : LC
Идентификатор кодека : A_AAC-2
Продолжительность : 1 ч. 52 м.
Битрейт : 384 Кбит/сек
Каналы : 6 каналов
Расположение каналов : Front: L C R, Side: L R, LFE
Частота : 48,0 КГц
Частота кадров : 46,875 кадров/сек (1024 SPF)
Метод сжатия : С потерями
Задержка видео : 21 мс.
Размер потока : 308 Мбайт (7%)
Язык : Russian
Default : Да
Forced : Нет

Меню
00:00:00.000 : en:00:00:00.000
00:03:26.998 : en:00:03:26.998
00:05:24.032 : en:00:05:24.032
00:11:36.487 : en:00:11:36.487
00:19:01.515 : en:00:19:01.515
00:21:10.728 : en:00:21:10.728
00:24:43.607 : en:00:24:43.607
00:27:52.379 : en:00:27:52.379
00:31:04.112 : en:00:31:04.112
00:36:14.506 : en:00:36:14.506
00:38:09.412 : en:00:38:09.412
00:42:57.450 : en:00:42:57.450
00:46:18.192 : en:00:46:18.192
00:48:08.385 : en:00:48:08.385
00:53:46.598 : en:00:53:46.598
01:00:15.612 : en:01:00:15.612
01:03:40.358 : en:01:03:40.358
01:10:58.546 : en:01:10:58.546
01:12:59.542 : en:01:12:59.542
01:16:37.718 : en:01:16:37.718
01:20:55.392 : en:01:20:55.392
01:27:04.344 : en:01:27:04.344
01:29:52.220 : en:01:29:52.220
01:34:18.027 : en:01:34:18.027
01:38:39.622 : en:01:38:39.622
01:43:44.427 : en:01:43:44.427
01:48:48.856 : en:01:48:48.856
01:51:17.671 : en:01:51:17.671

Под плaнетой обезьян / Beneath the Planet of the Apes
Год выпуска: 1970
Страна: США
Жанр: Фантастика, Приключения
Продолжительность: 01:34:42
Перевод: Многоголосый закадровый
Субтитры: Отсутствуют

Режиссер: Тед Пост

rating

В ролях: Джеймс Франсискус, Ким Хантер, Морис Эванс, Линда Харрисон, Пол Ричардс, Виктор Буоно, Джеймс Грегори, Джефф Кори, Natalie Trundy, Томас Гомес

Описание: Это вторая серия из пяти, рассказывающих о жизни на Земле в конце 40-го века от Рождества Христова. Когда после катастрофы звездолета оставшиеся в живых астронавты попали в плен к жутким человекоподобным обезьянам, все думали, что это конец.

Качество: BDRip 1080p
Формат: MKV
Видео кодек: H.265
Аудио кодек: ААС
Видео: 1920x812, ~6341 kbps
Аудио: AAC, 6 ch, 448 kbps

Релиз от: DSIO
File: J:\ФИЛЬМЫ\avdump\Планета обезьян 2 Под планетой обезьян - Beneath the Planet of the Apes (1970)(1080p).mkv
Duration: 01:34:42 (5682.13)
Track #1: video
lang: Unknown (1)
codc: V_MPEGH/ISO/HEVC -> Unknown (1)
reso: 1920x812 -> Unknown (aka not common)
fram: 23.976 fps
rate: 6342 kbps (6341.52)
dura: 01:34:42 (5682.09)
size: 4.19 GB (4504137371)
Track #2: audio
lang: rus -> Russian (15)
codc: A_AAC -> AAC (9)
chan: 6 -> 5.1 Surround
samp: 48000 Hz
rate: 446 kbps (446.03)
dura: 01:34:42 (5682.00)
size: 302.12 MB (316795686)
Sizes: (check sanity)
disk: 4.49 GB (4822626514)
atts: 314.27 KB (321814)
trac: 501.60 MB (525965761) [based on track size]
bitr: 4.49 GB (4820937695) [based on bitrate]
tdif: 4.00 GB (4296338939) 89.08%
bdif: 1.30 MB (1367004) 0.02%
Общее
Уникальный идентификатор : 232408216365500510498581129171894111530 (0xAED831BF16134DB0BE85429F82A58D2A)
Полное имя : J:\ФИЛЬМЫ\Планета обезьян - Planet of the Apes\Планета обезьян 2 Под планетой обезьян - Beneath the Planet of the Apes (1970)(1080p).mkv
Формат : Matroska
Версия формата : Version 4 / Version 2
Размер файла : 4,49 Гбайт
Продолжительность : 1 ч. 34 м.
Общий поток : 6790 Кбит/сек
Дата кодирования : UTC 2017-10-22 02:21:54
Программа кодирования : mkvmerge v16.0.0 ('Protest') 64-bit
Библиотека кодирования : libebml v1.3.5 + libmatroska v1.4.8
Обложка : Yes
Attachments : cover.jpg
Encoding Gui : Hybrid 2017.05.06.1

Видео
Идентификатор : 1
Формат : HEVC
Формат/Информация : High Efficiency Video Coding
Идентификатор кодека : V_MPEGH/ISO/HEVC
Продолжительность : 1 ч. 34 м.
Битрейт : 6341 Кбит/сек
Ширина : 1920 пикселей
Высота : 812 пикселей
Соотношение сторон : 2,35:1
Режим частоты кадров : Постоянный
Частота кадров : 23,976 (24000/1001) кадра/сек
Бит/(Пиксели*Кадры) : 0.170
Размер потока : 4,19 Гбайт (93%)
Язык : English
Default : Да
Forced : Да

Аудио
Идентификатор : 2
Формат : AAC
Формат/Информация : Advanced Audio Codec
Профиль формата : LC
Идентификатор кодека : A_AAC-2
Продолжительность : 1 ч. 34 м.
Битрейт : 445 Кбит/сек
Каналы : 6 каналов
Расположение каналов : Front: L C R, Side: L R, LFE
Частота : 48,0 КГц
Частота кадров : 46,875 кадров/сек (1024 SPF)
Метод сжатия : С потерями
Задержка видео : 21 мс.
Размер потока : 302 Мбайт (7%)
Язык : Russian
Default : Да
Forced : Нет

Меню
00:00:00.000 : en:00:00:00.000
00:02:25.354 : en:00:02:25.354
00:05:28.161 : en:00:05:28.161
00:09:20.310 : en:00:09:20.310
00:16:51.719 : en:00:16:51.719
00:22:45.447 : en:00:22:45.447
00:24:05.611 : en:00:24:05.611
00:31:24.633 : en:00:31:24.633
00:33:54.741 : en:00:33:54.741
00:35:08.940 : en:00:35:08.940
00:38:29.057 : en:00:38:29.057
00:41:12.303 : en:00:41:12.303
00:43:56.634 : en:00:43:56.634
00:49:20.875 : en:00:49:20.875
00:53:51.186 : en:00:53:51.186
00:56:51.700 : en:00:56:51.700
00:59:40.535 : en:00:59:40.535
01:07:53.361 : en:01:07:53.361
01:13:31.407 : en:01:13:31.407
01:18:10.603 : en:01:18:10.603
01:24:46.957 : en:01:24:46.957
01:26:53.083 : en:01:26:53.083
01:29:23.316 : en:01:29:23.316
01:33:49.833 : en:01:33:49.833

Бегство с плaнеты обезьян / Escape from the Planet of the Apes
Год выпуска: 1971
Страна: США
Жанр: Фантастика, Приключения
Продолжительность: 01:37:32
Перевод: Многоголосый закадровый
Субтитры: Отсутствуют

Режиссер: Дон Тейлор

rating

В ролях: Родди МакДауэлл, Ким Хантер, Брэдфорд Диллман, Natalie Trundy, Эрик Браден, Уильям Уиндом, Сэл Минео, Альберт Сэлми, Джон Рэндольф, Гарри Лоутер

Описание: У берегов США совершает посадку космический аппарат, на борту которого обнаруживают трёх обезьян. Сначала это вызывает недоумение, ведь когда-то на этом звездолёте улетели люди. А потом обезьяны заговорили, вызвав ещё большее смятение. Оказывается, на землю прилетели обезьяны-учёные — Зира, Корнелиус и доктор Мило.

Качество: BDRip 1080p
Формат: MKV
Видео кодек: H.265
Аудио кодек: ААС
Видео: 1920x812, ~4776 kbps
Аудио: AAC, 6 ch, 448 kbps

Релиз от: DSIO
File: J:\ФИЛЬМЫ\avdump\Планета обезьян 3 Бегство с планеты обезьян - Escape from the Planet of the Apes (1971)(1080p).mkv
Duration: 01:37:33 (5852.72)
Track #1: video
lang: Unknown (1)
codc: V_MPEGH/ISO/HEVC -> Unknown (1)
reso: 1918x812 -> Unknown (aka not common)
fram: 23.976 fps
rate: 4776 kbps (4776.39)
dura: 01:37:33 (5852.68)
size: 3.25 GB (3494333786)
Track #2: audio
lang: rus -> Russian (15)
codc: A_AAC -> AAC (9)
chan: 6 -> 5.1 Surround
samp: 48000 Hz
rate: 450 kbps (450.42)
dura: 01:37:33 (5852.52)
size: 314.25 MB (329514877)
Sizes: (check sanity)
disk: 3.56 GB (3825460255)
atts: 246.24 KB (252152)
trac: 3.56 GB (3823848663) [based on track size]
bitr: 3.56 GB (3823857380) [based on bitrate]
tdif: 1.30 MB (1359440) 0.03%
bdif: 1.29 MB (1350722) 0.03%
Общее
Уникальный идентификатор : 202063345859103161829034916330990332599 (0x9803FC1ED2873DD39AAA442E61FDEAB7)
Полное имя : J:\ФИЛЬМЫ\Планета обезьян - Planet of the Apes\Планета обезьян 3 Бегство с планеты обезьян - Escape from the Planet of the Apes (1971)(1080p).mkv
Формат : Matroska
Версия формата : Version 4 / Version 2
Размер файла : 3,56 Гбайт
Продолжительность : 1 ч. 37 м.
Общий поток : 5229 Кбит/сек
Дата кодирования : UTC 2017-10-22 02:24:50
Программа кодирования : mkvmerge v16.0.0 ('Protest') 64-bit
Библиотека кодирования : libebml v1.3.5 + libmatroska v1.4.8
Обложка : Yes
Attachments : cover.jpg
Encoding Gui : Hybrid 2017.05.06.1

Видео
Идентификатор : 1
Формат : HEVC
Формат/Информация : High Efficiency Video Coding
Идентификатор кодека : V_MPEGH/ISO/HEVC
Продолжительность : 1 ч. 37 м.
Битрейт : 4776 Кбит/сек
Ширина : 1918 пикселей
Высота : 812 пикселей
Соотношение сторон : 2,35:1
Режим частоты кадров : Постоянный
Частота кадров : 23,976 (24000/1001) кадра/сек
Бит/(Пиксели*Кадры) : 0.128
Размер потока : 3,25 Гбайт (91%)
Язык : English
Default : Да
Forced : Да

Аудио
Идентификатор : 2
Формат : AAC
Формат/Информация : Advanced Audio Codec
Профиль формата : LC
Идентификатор кодека : A_AAC-2
Продолжительность : 1 ч. 37 м.
Битрейт : 450 Кбит/сек
Каналы : 6 каналов
Расположение каналов : Front: L C R, Side: L R, LFE
Частота : 48,0 КГц
Частота кадров : 46,875 кадров/сек (1024 SPF)
Метод сжатия : С потерями
Задержка видео : 21 мс.
Размер потока : 314 Мбайт (9%)
Язык : Russian
Default : Да
Forced : Нет

Меню
00:00:00.000 : en:00:00:00.000
00:04:15.505 : en:00:04:15.505
00:07:19.689 : en:00:07:19.689
00:11:50.543 : en:00:11:50.543
00:15:24.799 : en:00:15:24.799
00:17:33.511 : en:00:17:33.511
00:20:12.086 : en:00:20:12.086
00:22:22.967 : en:00:22:22.967
00:32:07.259 : en:00:32:07.259
00:35:44.934 : en:00:35:44.934
00:41:52.969 : en:00:41:52.969
00:45:33.522 : en:00:45:33.522
00:50:14.428 : en:00:50:14.428
00:55:31.203 : en:00:55:31.203
01:01:06.746 : en:01:01:06.746
01:03:07.784 : en:01:03:07.784
01:05:39.060 : en:01:05:39.060
01:10:17.296 : en:01:10:17.296
01:12:24.590 : en:01:12:24.590
01:15:43.789 : en:01:15:43.789
01:19:14.166 : en:01:19:14.166
01:23:24.708 : en:01:23:24.708
01:26:04.993 : en:01:26:04.993
01:27:35.500 : en:01:27:35.500
01:31:09.547 : en:01:31:09.547
01:36:02.757 : en:01:36:02.757
01:36:49.804 : en:01:36:49.804

Завоевание плaнеты обезьян / Conquest of the Planet of the Apes
Год выпуска: 1972
Страна: США
Жанр: Фантастика, Приключения
Продолжительность: 01:27:22
Перевод: Многоголосый закадровый
Субтитры: Отсутствуют

Режиссер: Дж. Ли Томпсон

rating

В ролях: Родди МакДауэлл, Ким Хантер, Брэдфорд Диллман, Natalie Trundy, Эрик Браден, Уильям Уиндом, Сэл Минео, Альберт Сэлми, Джон Рэндольф, Гарри Лоутер

Описание: Через 20 лет после бегства Зиры и Корнелиуса с Планеты Обезьян, на Земле не осталось ни одной собаки или кошки. Вместо внезапно вымерших любимцев люди начали держать в домах обезьян, а, обнаружив их способность к быстрому обучению, тренировать их на выполнение несложной работы по дому.

Качество: BDRip 1080p
Формат: MKV
Видео кодек: H.265
Аудио кодек: ААС
Видео: 1920x812, ~6293 kbps
Аудио: AAC, 6 ch, 448 kbps

Релиз от: DSIO
File: J:\ФИЛЬМЫ\avdump\Планета обезьян 4 Завоевание планеты обезьян - Conquest of the Planet of the Apes (1972)(1080p) (2).mkv
Duration: 01:27:23 (5242.65)
Track #1: video
lang: Unknown (1)
codc: V_MPEGH/ISO/HEVC -> Unknown (1)
reso: 1918x812 -> Unknown (aka not common)
fram: 23.976 fps
rate: 6293 kbps (6292.85)
dura: 01:27:23 (5242.61)
size: 3.84 GB (4123870347)
Track #2: audio
lang: rus -> Russian (15)
codc: A_AAC -> AAC (9)
chan: 6 -> 5.1 Surround
samp: 48000 Hz
rate: 450 kbps (449.52)
dura: 01:27:22 (5242.41)
size: 280.92 MB (294567968)
Sizes: (check sanity)
disk: 4.12 GB (4419997534)
atts: 281.77 KB (288533)
trac: 4.11 GB (4418438315) [based on track size]
bitr: 4.12 GB (4418449496) [based on bitrate]
tdif: 1.21 MB (1270686) 0.02%
bdif: 1.20 MB (1259504) 0.02%
Общее
Уникальный идентификатор : 175242039213822095655264155759789303558 (0x83D6639AFDEB0EB3B1402A1E37D96706)
Полное имя : J:\ФИЛЬМЫ\Планета обезьян - Planet of the Apes\Планета обезьян 4 Завоевание планеты обезьян - Conquest of the Planet of the Apes (1972)(1080p) (2).mkv
Формат : Matroska
Версия формата : Version 4 / Version 2
Размер файла : 4,12 Гбайт
Продолжительность : 1 ч. 27 м.
Общий поток : 6745 Кбит/сек
Дата кодирования : UTC 2017-10-22 02:28:17
Программа кодирования : mkvmerge v16.0.0 ('Protest') 64-bit
Библиотека кодирования : libebml v1.3.5 + libmatroska v1.4.8
Обложка : Yes
Attachments : cover.jpg
Encoding Gui : Hybrid 2017.05.06.1

Видео
Идентификатор : 1
Формат : HEVC
Формат/Информация : High Efficiency Video Coding
Идентификатор кодека : V_MPEGH/ISO/HEVC
Продолжительность : 1 ч. 27 м.
Битрейт : 6293 Кбит/сек
Ширина : 1918 пикселей
Высота : 812 пикселей
Соотношение сторон : 2,35:1
Режим частоты кадров : Постоянный
Частота кадров : 23,976 (24000/1001) кадра/сек
Бит/(Пиксели*Кадры) : 0.169
Размер потока : 3,84 Гбайт (93%)
Язык : English
Default : Да
Forced : Да

Аудио
Идентификатор : 2
Формат : AAC
Формат/Информация : Advanced Audio Codec
Профиль формата : LC
Идентификатор кодека : A_AAC-2
Продолжительность : 1 ч. 27 м.
Битрейт : 449 Кбит/сек
Каналы : 6 каналов
Расположение каналов : Front: L C R, Side: L R, LFE
Частота : 48,0 КГц
Частота кадров : 46,875 кадров/сек (1024 SPF)
Метод сжатия : С потерями
Задержка видео : 21 мс.
Размер потока : 281 Мбайт (7%)
Язык : Russian
Default : Да
Forced : Нет

Меню
00:00:00.000 : en:00:00:00.000
00:02:22.642 : en:00:02:22.642
00:05:03.845 : en:00:05:03.845
00:11:17.677 : en:00:11:17.677
00:14:08.598 : en:00:14:08.598
00:15:53.744 : en:00:15:53.744
00:19:31.545 : en:00:19:31.545
00:25:52.885 : en:00:25:52.885
00:28:05.434 : en:00:28:05.434
00:29:04.868 : en:00:29:04.868
00:31:37.062 : en:00:31:37.062
00:37:01.511 : en:00:37:01.511
00:41:23.690 : en:00:41:23.690
00:46:59.400 : en:00:46:59.400
00:51:28.377 : en:00:51:28.377
00:58:28.839 : en:00:58:28.839
01:05:03.274 : en:01:05:03.274
01:08:56.049 : en:01:08:56.049
01:16:21.368 : en:01:16:21.368
01:22:36.577 : en:01:22:36.577
01:26:54.209 : en:01:26:54.209

Битва за плaнету обезьян / Battle for the Planet of the Apes
Год выпуска: 1973
Страна: США
Жанр: Фантастика, Приключения
Продолжительность: 01:26:32
Перевод: Многоголосый закадровый
Субтитры: Отсутствуют

Режиссер: Дж. Ли Томпсон

rating

В ролях: Родди МакДауэлл, Клод Экинс, Natalie Trundy, Северн Дарден, Лью Эйрз, Пол Уильямс, Остин Стокер, Ной Кин, Ричард Истхэм, Франс Нуйен

Описание: Все новые и новые опасности приносит как людям, так и обезьянам будущее. На карту поставлена сама возможность существования этих биологических видов. И уже всем становится понятно, что только совместные усилия и выход на новый уровень взаимодействия дадут шанс планете в надвигающейся череде катастроф…

Качество: BDRip 1080p
Формат: MKV
Видео кодек: H.265
Аудио кодек: ААС
Видео: 1920x812, ~4210 kbps
Аудио: AAC, 6 ch, 448 kbps

Релиз от: DSIO
File: J:\ФИЛЬМЫ\avdump\Планета обезьян 5 Битва за планету обезьян - Battle for the Planet of the Apes (1973)(1080p).mkv
Duration: 01:26:32 (5192.1)
Track #1: video
lang: Unknown (1)
codc: V_MPEGH/ISO/HEVC -> Unknown (1)
reso: 1918x812 -> Unknown (aka not common)
fram: 23.976 fps
rate: 4210 kbps (4209.57)
dura: 01:26:32 (5192.06)
size: 2.54 GB (2732044897)
Track #2: audio
lang: rus -> Russian (15)
codc: A_AAC -> AAC (9)
chan: 6 -> 5.1 Surround
samp: 48000 Hz
rate: 449 kbps (448.88)
dura: 01:26:32 (5192.02)
size: 277.83 MB (291324752)
Sizes: (check sanity)
disk: 2.82 GB (3025007038)
atts: 422.79 KB (432941)
trac: 2.82 GB (3023369649) [based on track size]
bitr: 2.82 GB (3023372187) [based on bitrate]
tdif: 1.15 MB (1204448) 0.03%
bdif: 1.15 MB (1201909) 0.03%
Общее
Уникальный идентификатор : 235454194917965272414422224245326945075 (0xB122D41575067D6287E0BC5778FD1B33)
Полное имя : J:\ФИЛЬМЫ\Планета обезьян - Planet of the Apes\Планета обезьян 5 Битва за планету обезьян - Battle for the Planet of the Apes (1973)(1080p).mkv
Формат : Matroska
Версия формата : Version 4 / Version 2
Размер файла : 2,82 Гбайт
Продолжительность : 1 ч. 26 м.
Общий поток : 4661 Кбит/сек
Дата кодирования : UTC 2017-10-23 02:58:26
Программа кодирования : mkvmerge v16.0.0 ('Protest') 64-bit
Библиотека кодирования : libebml v1.3.5 + libmatroska v1.4.8
Обложка : Yes
Attachments : cover.jpg
Encoding Gui : Hybrid 2017.10.05.1

Видео
Идентификатор : 1
Формат : HEVC
Формат/Информация : High Efficiency Video Coding
Профиль формата : Main 10@L4@Main
Идентификатор кодека : V_MPEGH/ISO/HEVC
Продолжительность : 1 ч. 26 м.
Битрейт : 4210 Кбит/сек
Ширина : 1918 пикселей
Высота : 812 пикселей
Соотношение сторон : 2,35:1
Режим частоты кадров : Постоянный
Частота кадров : 23,976 (24000/1001) кадра/сек
Цветовое пространство : YUV
Субдискретизация насыщенности : 4:2:0
Битовая глубина : 10 бит
Бит/(Пиксели*Кадры) : 0.113
Размер потока : 2,54 Гбайт (90%)
Библиотека кодирования : x265 2.5+20-0967d0add97e:[Windows][GCC 7.2.0][64 bit] 10bit
Настройки программы : cpuid=1050111 / frame-threads=3 / numa-pools=12 / wpp / no-pmode / no-pme / no-psnr / no-ssim / log-level=2 / input-csp=1 / input-res=1918x812 / interlace=0 / total-frames=0 / level-idc=0 / high-tier=1 / uhd-bd=0 / ref=6 / no-allow-non-conformance / repeat-headers / annexb / aud / no-hrd / info / hash=0 / no-temporal-layers / open-gop / min-keyint=23 / keyint=240 / bframes=8 / b-adapt=2 / b-pyramid / bframe-bias=0 / rc-lookahead=40 / lookahead-slices=4 / scenecut=40 / no-intra-refresh / ctu=64 / min-cu-size=8 / rect / no-amp / max-tu-size=32 / tu-inter-depth=2 / tu-intra-depth=2 / limit-tu=0 / rdoq-level=2 / dynamic-rd=0.00 / no-ssim-rd / signhide / no-tskip / nr-intra=0 / nr-inter=0 / no-constrained-intra / strong-intra-smoothing / max-merge=3 / limit-refs=3 / limit-modes / me=2 / subme=6 / merange=32 / temporal-mvp / weightp / no-weightb / no-analyze-src-pics / deblock=-3:-3 / no-sao / no-sao-non-deblock / rd=3 / no-early-skip / rskip / no-fast-intra / no-tskip-fast / no-cu-lossless / no-b-intra / no-splitrd-skip / rdpenalty=0 / psy-rd=2.00 / psy-rdoq=0.00 / no-rd-refine / analysis-reuse-mode=0 / no-lossless / cbqpoffs=0 / crqpoffs=0 / rc=crf / crf=20.0 / qcomp=0.60 / qpstep=4 / stats-write=0 / stats-read=0 / ipratio=1.40 / pbratio=1.30 / aq-mode=1 / aq-strength=1.00 / cutree / zone-count=0 / no-strict-cbr / qg-size=32 / no-rc-grain / qpmax=69 / qpmin=0 / no-const-vbv / sar=1 / overscan=0 / videoformat=5 / range=0 / colorprim=1 / transfer=1 / colormatrix=1 / chromaloc=0 / display-window=0 / max-cll=0,0 / min-luma=0 / max-luma=1023 / log2-max-poc-lsb=8 / vui-timing-info / vui-hrd-info / slices=1 / opt-qp-pps / opt-ref-list-length-pps / no-multi-pass-opt-rps / scenecut-bias=0.05 / no-opt-cu-delta-qp / no-aq-motion / no-hdr / no-hdr-opt / no-dhdr10-opt / analysis-reuse-level=5 / scale-factor=0 / refine-intra=0 / refine-inter=0 / refine-mv=0 / no-limit-sao / ctu-info=0
Язык : English
Default : Да
Forced : Да
Цветовой диапазон : Limited
Основные цвета : BT.709
Характеристики трансфера : BT.709
Коэффициенты матрицы : BT.709

Аудио
Идентификатор : 2
Формат : AAC
Формат/Информация : Advanced Audio Codec
Профиль формата : LC
Идентификатор кодека : A_AAC-2
Продолжительность : 1 ч. 26 м.
Битрейт : 448 Кбит/сек
Каналы : 6 каналов
Расположение каналов : Front: L C R, Side: L R, LFE
Частота : 48,0 КГц
Частота кадров : 46,875 кадров/сек (1024 SPF)
Метод сжатия : С потерями
Задержка видео : 21 мс.
Размер потока : 277 Мбайт (10%)
Язык : Russian
Default : Да
Forced : Нет

Меню
00:00:00.000 : en:00:00:00.000
00:04:47.454 : en:00:04:47.454
00:08:57.704 : en:00:08:57.704
00:10:56.322 : en:00:10:56.322
00:15:46.696 : en:00:15:46.696
00:20:45.578 : en:00:20:45.578
00:23:40.586 : en:00:23:40.586
00:26:48.982 : en:00:26:48.982
00:30:31.997 : en:00:30:31.997
00:33:52.238 : en:00:33:52.238
00:38:24.636 : en:00:38:24.636
00:42:51.611 : en:00:42:51.611
00:44:06.769 : en:00:44:06.769
00:46:03.219 : en:00:46:03.219
00:49:25.296 : en:00:49:25.296
00:53:54.481 : en:00:53:54.481
00:58:15.742 : en:00:58:15.742
01:02:17.567 : en:01:02:17.567
01:04:42.212 : en:01:04:42.212
01:12:24.298 : en:01:12:24.298
01:15:57.136 : en:01:15:57.136
01:16:45.643 : en:01:16:45.643
01:22:34.908 : en:01:22:34.908
01:25:34.921 : en:01:25:34.921

pb.wtf



Скачать Планета обезьян: Пенталогия – 40 лет эволюции через торрент https://b.radikal.ru/b39/1805/57/fc99aade83dc.jpg Скачать, смотреть онлайн Планета обезьян: Пенталогия – 40 лет эволюции бесплантно в хорошем качестве Описание: В 3978 году космический корабль землян терпит крушение на далекой планете. Выжившие в катастрофе астронавты удивляются, как она ... 9.8 10 5
Info! Золотая раздача, скачанное не засчитывается.
Торрент: Зарегистрирован [2018-05-08 12:56] · скачан: 40 раз
Статус: √ проверено
Размер: 19.32 GB
Как cкачать? Как скачать Планета обезьян: Пенталогия – 40 лет эволюции через торрент | UTorrent

28-11-2019 20:33  

Отключить всю рекламу на сайте

08-05-2018 13:46 Планета обезьян: Пенталогия – 40 лет эволюции Скачать торрент  

Топик был перенесен из форума Фильмы [HD 720p, 1080p] (Хороший звук DUB, MVO) в форум Сборники (HD Video)


-Lexx-pb.wtf



09-11-2018 20:36 Планета обезьян: Пенталогия – 40 лет эволюции Скачать торрент  

Ох Спасибо! Помню по вхс-у смотрел до потёртости плёнки, сейчас с удовольствием пересмотрю по большому pb.wtf



    Дорогой пользователь! Огромная просьба, поблагодарите релизера, оцените раздачу и оставьте свои комментарий, если Вы скачали Планета обезьян: Пенталогия – 40 лет эволюции через торрент бесплатно!
    Комментировать посты могут только пользователи прошедшие не сложную регистрацию
    Показать сообщения:    

    Планета обезьян: Пенталогия – 40 лет эволюции через торрент
    Скачать бесплатно Планета обезьян: Пенталогия – 40 лет эволюции
    Планета обезьян: Пенталогия – 40 лет эволюции скачать торрент
    Планета обезьян: Пенталогия – 40 лет эволюции смотреть онлайн
    Cкачать фильм Планета обезьян: Пенталогия – 40 лет эволюции бесплатно
    Планета обезьян: Пенталогия – 40 лет эволюции скачать торрент в хорошем качестве
    Планета обезьян: Пенталогия – 40 лет эволюции смотреть онлайн бесплатно в хорошем качестве


    Вы не можете начинать темы
    Вы не можете отвечать на сообщения
    Вы не можете редактировать свои сообщения
    Вы не можете удалять свои сообщения
    Вы не можете голосовать в опросах
    Вы не можете прикреплять файлы к сообщениям
    Вы можете скачивать файлы