1 сезон

3 сезон

iTunes

1

iTunes

DUB Netflix

iTunes

13

1 сезон

RePack

30

Deluxe

pack

Легкие деньги

ВАЖНО

ИГРА 18+

pack

RePack

MK11

RePack

jed

RePack

fifa19

RePack

RDR2

RePack

NEED FOR SPEED™ PAYBACK

4 сезон

9 сезон

Бесстыжие 9 сезон

Все сериалы

все сериалы на PB.wtf

RePack

FAR CRY 5

Anonymous, доброе утро, мы не успеваем до 1 числа собрать деньги на оплату серверов, помогите нам пожалуйста в это трудное время. В качестве благодарности мы отключим Вам всю рекламу на сайте (укажите свой ник в строку Ваше имя)!

×
  
Magnet ссылка

Последний человек на Земле / The Last Man on Earth / Сезон: 4 / Серии: 1-18 из 18 (Фил Лорд, Кристофер Миллер, Джейсон Уолинер) [2017, Комедия, фантастика, WEBRip] MVO [BaibaKo] pb.wtf

Последний человек на Земле через торрент pb.wtf

Размер: 5.33 GB | Добавлен: 3 года 1 мес. назад | Торрент скачан:114 раз
Скачать  

08-05-2018 16:54 Последний человек на Земле Скачать торрент  

Последний человек на Земле / The Last Man on Earth
Год выпуска: 2017
Страна: США
Жанр: Комедия, фантастика
Продолжительность: ~ 00:22:00 серия
Перевод: Профессиональный многоголосый |
Субтитры: отсутствуют

Режиссер: Фил Лорд, Кристофер Миллер, Джейсон Уолинер

rating

В ролях:


Уилл Форте (Phil Miller), Кристен Шаал (Carol Pilbasian), Дженьюэри Джонс (Melissa Shart), Мэл Родригез (Todd), Клеопатра Коулмэн (Erica), Мэри Стинберген (Gail Klosterman), Джейсон Судейкис (Mike Miller), Борис Коджо (Phil Miller #2), Марк Бун Джуниор (Pat Brown), Аланна Висенте (Computer), Александра Даддарио (Victoria), Джейкоб Тремблэ (Young Tandy)
Описание:

Фил Миллер последний человек на Земле в 2022 году, который ищет по всем США любые признаки человеческой жизни после неизвестного события, уничтожившего всех людей на Земле, включая его семью и сотрудников банка, где он работал.

Качество: WEBRip
Формат: AVI

Видео: XviD, ~ 1500 Кбит/с, 720x400
Аудио#1: Русский (MP3, 2 ch, 192 Кбит/с)
Аудио#2: английский (MP3, 2 ch, 192 Кбит/с)
скриншот   скриншот   скриншот   скриншот  

Общее
Полное имя : F:\The.Last.Man.On.Earth.s04.WEBRip.XviD.Rus.Eng.BaibaKo.tv\The.Last.Man.On.Earth.s04e01.PROPER.WEBRip.XviD.Rus.Eng.BaibaKo.tv.avi
Формат : AVI
Формат/Информация : Audio Video Interleave
Размер файла : 300 Мбайт
Продолжительность : 22 м. 7 с.
Общий поток : 1898 Кбит/сек
Программа кодирования : VirtualDubMod 1.5.10.2 (build 2542/release)
Библиотека кодирования : VirtualDubMod build 2542/release

Видео
Идентификатор : 0
Формат : MPEG-4 Visual
Профиль формата : Advanced Simple@L5
Параметр BVOP формата : 2
Параметр QPel формата : Нет
Параметр GMC формата : Без точки перехода
Параметр матрицы формата : Default (H.263)
Идентификатор кодека : XVID
Идентификатор кодека/Подсказка : XviD
Продолжительность : 22 м. 7 с.
Битрейт : 1500 Кбит/сек
Ширина : 720 пикселей
Высота : 400 пикселей
Соотношение сторон : 16:9
Частота кадров : 23,976 (24000/1001) кадра/сек
Цветовое пространство : YUV
Субдискретизация насыщенности : 4:2:0
Битовая глубина : 8 бит
Тип развёртки : Прогрессивная
Метод сжатия : С потерями
Бит/(Пиксели*Кадры) : 0.217
Размер потока : 237 Мбайт (79%)
Библиотека кодирования : XviD 65

Аудио #1
Идентификатор : 1
Формат : MPEG Audio
Версия формата : Version 1
Профиль формата : Layer 3
Режим : Joint stereo
Расширение режима : MS Stereo
Идентификатор кодека : 55
Идентификатор кодека/Подсказка : MP3
Продолжительность : 22 м. 7 с.
Вид битрейта : Постоянный
Битрейт : 192 Кбит/сек
Каналы : 2 канала
Частота : 48,0 КГц
Метод сжатия : С потерями
Размер потока : 30,4 Мбайт (10%)
Выравнивание : Соединение по промежуткам
Продолжительность промежутка : 42 мс. (1,00 видеокадр)
Время предзагрузки промежутка : 504 мс.
Библиотека кодирования : LAME3.99r
Настройки программы : -m j -V 4 -q 2 -lowpass 18.6 -b 192

Аудио #2
Идентификатор : 2
Формат : MPEG Audio
Версия формата : Version 1
Профиль формата : Layer 3
Режим : Joint stereo
Расширение режима : MS Stereo
Идентификатор кодека : 55
Идентификатор кодека/Подсказка : MP3
Продолжительность : 22 м. 7 с.
Вид битрейта : Постоянный
Битрейт : 192 Кбит/сек
Каналы : 2 канала
Частота : 48,0 КГц
Метод сжатия : С потерями
Размер потока : 30,4 Мбайт (10%)
Выравнивание : Разделение по промежуткам
Продолжительность промежутка : 42 мс. (1,00 видеокадр)
Время предзагрузки промежутка : 500 мс.
Библиотека кодирования : LAME3.99r
Настройки программы : -m j -V 4 -q 2 -lowpass 18.6 -b 192

pb.wtf



Скачать Последний человек на Земле через торрент https://pic1.kartinco.top/images/11/qo222.jpg Скачать фильм Последний человек на Земле через торрент бесплантно в хорошем качестве Описание: Фил Миллер последний человек на Земле в 2022 году, который ищет по всем США любые признаки человеческой жизни после неизвестного ... 10 10 2
Торрент: Зарегистрирован [2018-05-08 16:54] · скачан: 114 раз
Статус: √ проверено
Размер: 5.33 GB
Как cкачать? Как скачать Последний человек на Земле через торрент | UTorrent

% Раздел Тема Автор DL S | L
Зарубежные сериалы [ 16.7 GB ] Последний человек на Земле / The Last Man on Earth / Сезон: 4 / Серии: 1-18 из 18 [2017 WEBRip 1080p] MVO [BaibaKo] bober100 Скачать
1 | 0
Зарубежные сериалы [ 12.3 GB ] Последний человек на Земле / The Last Man on Earth / Сезон: 4 / Серии 1-18 из 18 [2017 WEBRip 720p] MVO [BaibaKo] GEKADOL Скачать
1 | 0

28-11-2019 20:33  

Отключить всю рекламу на сайте


    Дорогой пользователь! Огромная просьба, поблагодарите релизера, оцените раздачу и оставьте свои комментарий, если Вы скачали Последний человек на Земле через торрент бесплатно! Внесите свою лепту в развитие PiratBit!
    Комментировать посты могут только пользователи прошедшие не сложную регистрацию
    Показать сообщения:    

    Последний человек на Земле через торрент
    Скачать бесплатно Последний человек на Земле
    Последний человек на Земле скачать торрент
    Последний человек на Земле смотреть онлайн
    Cкачать фильм Последний человек на Земле бесплатно
    Последний человек на Земле скачать торрент в хорошем качестве
    Последний человек на Земле смотреть онлайн бесплатно в хорошем качестве


    Вы не можете начинать темы
    Вы не можете отвечать на сообщения
    Вы не можете редактировать свои сообщения
    Вы не можете удалять свои сообщения
    Вы не можете голосовать в опросах
    Вы не можете прикреплять файлы к сообщениям
    Вы можете скачивать файлы