Ссылка на приватное зеркало всего за 1$. Внимание количество ограничено!!!

OK

1+1

iTunes

мы

OK

1

WEB-DLRip

Джокер

Пифагор

Ведьмак / The Witcher сериал

iTunes

ПШазам

ОК

Оно 2

iTunes

30
pack

Вам бонус

ВАЖНО

!!Акция!!

Alien_RageХит недели

RePack

Resident Evil 21

ИГРА 18+

pack

RePack

jed

RePack

fifa19

RePack

Assassins Creed: Odyssey

RePack

NEED FOR SPEED™ PAYBACK

4 сезон

9 сезон

Бесстыжие 9 сезон

Все сериалы

все сериалы на PB.wtf

RePack

FAR CRY 5
  

Шторм: Письма огня / Storm: Letters van Vuur (Деннис Ботс) [2017, Драма, семейный, WEB-DL 720p] MVO [@MUZOBOZ@] pb.wtf

Шторм: Письма огня через торрент pb.wtf

Размер: 3.9 GB | Добавлен: 1 год 8 мес. назад | Торрент скачан:96 раз
Скачать  

08-05-2018 17:41 Шторм: Письма огня Скачать торрент  

Шторм: Письма огня / Storm: Letters van VuurГод выпуска: 2017
Страна: Нидерланды
Жанр: Драма, семейный
Продолжительность: 01:47:28
Перевод: Любительский (многоголосый) | @MUZOBOZ@
Субтитры: отсутствуют

Режиссер: Деннис Ботс

rating

В ролях:

Лаура Верлинден, Йорик ван Вагенинген, Эгберт Ян Вебер, Питер Ван ден Бегин, Люк Питерс, Мартен Хейманс, Анжела Схяйф, Люк Фейт, Тибо Ванденборре, Дэви Гомес

Описание:

XVI век, Антверпен. Клаас Вутен — один из пионеров книгопечатания на территории Габсбургских Нидерландов. Вместе с коллегами Клаас печатает различные произведения, часто — запрещённые властями. Во время очередной облавы инквизиция арестовывает Клааса за печать запрещённого памфлета Мартина Лютера. 12-летний сын печатника Шторм успевает сохранить у себя оригинальную форму для печати листа Лютера и сбегает, избежав ареста. Шторм подпольно продолжает отцовское дело просвещения народа и также становится объектом охоты инквизиторов. Мальчику необходимо придумать, как спасти отца от сожжения на костре.

Качество: WEB-DL 720p
Формат: MKV

Видео: 4807 kb/s, 1280x536
Аудио#1: AC3, 2 ch, 384 Кбит/с
скриншот  скриншот  скриншот  

Общее
Уникальный идентификатор : 207162609876775064047949462817729353858 (0x9BDA113F4912B2D2990A902CE48F1882)
Полное имя : F:\Storm.Letters.van.Vuur.2017.P.WEB-DL.72Op_KOSHARA.mkv
Формат : Matroska
Версия формата : Version 2
Размер файла : 3,90 Гбайт
Продолжительность : 1 ч. 47 м.
Режим общего битрейта : Переменный
Общий поток : 5193 Кбит/сек
Дата кодирования : UTC 2018-05-07 18:57:44
Программа кодирования : mkvmerge v8.3.0 ('Over the Horizon') 64bit
Библиотека кодирования : libebml v1.3.1 + libmatroska v1.4.2

Видео
Идентификатор : 1
Формат : AVC
Формат/Информация : Advanced Video Codec
Профиль формата : High@L4.1
Параметр CABAC формата : Да
Параметр RefFrames формата : 4 кадра
Идентификатор кодека : V_MPEG4/ISO/AVC
Продолжительность : 1 ч. 47 м.
Вид битрейта : Переменный
Битрейт : 4807 Кбит/сек
Максимальный битрейт : 5200 Кбит/сек
Ширина : 1280 пикселей
Высота : 536 пикселей
Соотношение сторон : 2,40:1
Режим частоты кадров : Постоянный
Частота кадров : 23,976 (24000/1001) кадра/сек
Стандарт вещания : Component
Цветовое пространство : YUV
Субдискретизация насыщенности : 4:2:0
Битовая глубина : 8 бит
Тип развёртки : Прогрессивная
Бит/(Пиксели*Кадры) : 0.286
Размер потока : 3,53 Гбайт (91%)
Default : Да
Forced : Нет
Цветовой диапазон : Limited
Основные цвета : BT.709
Характеристики трансфера : BT.709
Коэффициенты матрицы : BT.709

Аудио
Идентификатор : 2
Формат : AC-3
Формат/Информация : Audio Coding 3
Расширение режима : CM (complete main)
Параметр Endianness формата : Big
Идентификатор кодека : A_AC3
Продолжительность : 1 ч. 47 м.
Вид битрейта : Постоянный
Битрейт : 384 Кбит/сек
Каналы : 2 канала
Расположение каналов : Front: L R
Частота : 48,0 КГц
Частота кадров : 31,250 кадров/сек (1536 spf)
Метод сжатия : С потерями
Размер потока : 295 Мбайт (7%)
Default : Да
Forced : Нет

pb.wtf



Скачать Шторм: Письма огня через торрент http://img12.lostpic.net/2018/05/08/7b5617324ee030188d1ebfba72188eae.jpg Скачать фильм Шторм: Письма огня через торрент бесплантно в хорошем качестве Описание: XVI век, Антверпен. Клаас Вутен — один из пионеров книгопечатания на территории Габсбургских Нидерландов. Вместе с коллегами ... 8.2 10 5
Торрент: Зарегистрирован [2018-05-08 17:41] · скачан: 96 раз
Статус: T временная
Размер: 3.9 GB
Как cкачать? Как скачать Шторм: Письма огня через торрент | qTorrent

% Раздел Тема Автор DL S | L
T Фильмы (мультфильмы) cо спонсором показа (Новинки AVI/MKV) [ 1.46 GB ] Шторм: Письма огня / Storm: Letters van Vuur [2017 WEB-DLRip] MVO [@MUZOBOZ@] bober100 Скачать
1 | 0

28-11-2019 20:33  

Отключить всю рекламу на сайте

    Дорогой пользователь! Огромная просьба, поблагодарите релизера, оцените раздачу и оставьте свои комментарий, если Вы скачали Шторм: Письма огня через торрент бесплатно! Внесите свою лепту в развитие PiratBit!
    Комментировать посты могут только пользователи прошедшие не сложную регистрацию
    Показать сообщения:    

    Шторм: Письма огня через торрент
    Скачать бесплатно Шторм: Письма огня
    Шторм: Письма огня скачать торрент
    Шторм: Письма огня смотреть онлайн
    Cкачать фильм Шторм: Письма огня бесплатно
    Шторм: Письма огня скачать торрент в хорошем качестве
    Шторм: Письма огня смотреть онлайн бесплатно в хорошем качестве


    Вы не можете начинать темы
    Вы не можете отвечать на сообщения
    Вы не можете редактировать свои сообщения
    Вы не можете удалять свои сообщения
    Вы не можете голосовать в опросах
    Вы не можете прикреплять файлы к сообщениям
    Вы можете скачивать файлы