Ссылка на приватное зеркало всего за 1$. Внимание количество ограничено!!!

OK

1+1

iTunes

мы

OK

1

WEB-DLRip

Джокер

Пифагор

Ведьмак / The Witcher сериал

iTunes

ПШазам

ОК

Оно 2

iTunes

30
pack

Вам бонус

ВАЖНО

!!Акция!!

Alien_RageХит недели

RePack

Resident Evil 21

ИГРА 18+

pack

RePack

jed

RePack

fifa19

RePack

Assassins Creed: Odyssey

RePack

NEED FOR SPEED™ PAYBACK

4 сезон

9 сезон

Бесстыжие 9 сезон

Все сериалы

все сериалы на PB.wtf

RePack

FAR CRY 5
  

Король / Rey (Найлес Аталах) [2017, Драма, WEB-DL 720p] MVO [КОЛОБОК] pb.wtf

Король через торрент pb.wtf

Размер: 3.04 GB | Добавлен: 1 год 8 мес. назад | Торрент скачан:18 раз
Скачать  

08-05-2018 18:02 Король Скачать торрент  

Король / ReyГод выпуска: 2017
Страна: Франция, Чили
Жанр: Драма
Продолжительность: 01:32:25
Перевод: Любительский (многоголосый) | КОЛОБОК
Субтитры: английские

Режиссер: Найлес Аталах

rating

В ролях:

Родриго Лижбоа, Клаудио Риверас

Описание:

Молодой французский адвокат Орели-Антуан де Тунан много лет мечтает о том, чтобы сбежать на другой конец света и стать королем Амазонии. В 1860 году он отправляется навстречу судьбе, находит индейцев-мапуче, которые признают его верховным правителем Патагонии и Араукании. Теперь осталось убедить весь остальной мир в том, что твой титул — это не шутка и не обман.

Качество: WEB-DL 720p
Формат: MKV

Видео: h.264, 4 316 Кбит/с, 1280x692
Аудио#1: Русский, (AC3, 2 ch, 384 Кбит/с)
скриншот  скриншот  скриншот  

Общее
Уникальный идентификатор : 186133756163544377808479562051362917440 (0x8C080EB611DC8766B5D2E3E71C7E8C40)
Полное имя : F:\Rey.2017.Pk.WEB-DL.72Op.mkv
Формат : Matroska
Версия формата : Version 2
Размер файла : 3,04 Гбайт
Продолжительность : 1 ч. 32 м.
Режим общего битрейта : Переменный
Общий поток : 4702 Кбит/сек
Дата кодирования : UTC 2018-05-07 19:11:14
Программа кодирования : mkvmerge v8.3.0 ('Over the Horizon') 64bit
Библиотека кодирования : libebml v1.3.1 + libmatroska v1.4.2

Видео
Идентификатор : 1
Формат : AVC
Формат/Информация : Advanced Video Codec
Профиль формата : High@L4.1
Параметр CABAC формата : Да
Параметр RefFrames формата : 4 кадра
Идентификатор кодека : V_MPEG4/ISO/AVC
Продолжительность : 1 ч. 32 м.
Вид битрейта : Переменный
Битрейт : 4316 Кбит/сек
Максимальный битрейт : 5000 Кбит/сек
Ширина : 1280 пикселей
Высота : 692 пикселя
Соотношение сторон : 1,85:1
Режим частоты кадров : Постоянный
Частота кадров : 23,976 (24000/1001) кадра/сек
Стандарт вещания : Component
Цветовое пространство : YUV
Субдискретизация насыщенности : 4:2:0
Битовая глубина : 8 бит
Тип развёртки : Прогрессивная
Бит/(Пиксели*Кадры) : 0.199
Размер потока : 2,73 Гбайт (90%)
Default : Да
Forced : Нет
Цветовой диапазон : Limited
Основные цвета : BT.709
Характеристики трансфера : BT.709
Коэффициенты матрицы : BT.709

Аудио
Идентификатор : 2
Формат : AC-3
Формат/Информация : Audio Coding 3
Расширение режима : CM (complete main)
Параметр Endianness формата : Big
Идентификатор кодека : A_AC3
Продолжительность : 1 ч. 32 м.
Вид битрейта : Постоянный
Битрейт : 384 Кбит/сек
Каналы : 2 канала
Расположение каналов : Front: L R
Частота : 32,0 КГц
Частота кадров : 20,833 кадров/сек (1536 spf)
Метод сжатия : С потерями
Размер потока : 254 Мбайт (8%)
Default : Да
Forced : Нет

pb.wtf



Скачать Король через торрент http://img12.lostpic.net/2018/05/08/a4a33a85b1d93dfa79db5c3f710ff965.jpg Скачать фильм Король через торрент бесплантно в хорошем качестве Описание: Молодой французский адвокат Орели-Антуан де Тунан много лет мечтает о том, чтобы сбежать на другой конец света и стать королем ... 8.2 10 5
Торрент: Зарегистрирован [2018-05-08 18:02] · скачан: 18 раз
Статус: T временная
Размер: 3.04 GB
Как cкачать? Как скачать Король через торрент | qTorrent

% Раздел Тема Автор DL S | L
Зарубежные Мультфильмы (BDRip 1080p, 720p, Blu-ray, BD-Remux) [ 41.53 GB ] Король Лев / The Lion King [2019 мультфильм мюзикл Blu-ray EUR 1080p] DUB [] bober100 Скачать
1 | 0
Фильмы (Blu-ray, BD-Remux, HDDVD) [ 45.16 GB ] Годзилла 2: Король монстров / Godzilla: King of the Monsters [2019 Blu-ray EUR 1080p] DUB [] bober100 Скачать
1 | 0
Ultra HD (UHD: 2K, 4K, 8K) — видео сверхвысокой чёткости [ 64.08 GB ] Годзилла 2: Король монстров / Godzilla: King of the Monsters [2019 UHD Blu-ray 2160p] [Dolby Vision] DUB [] bober100 Скачать
1 | 3
Фильмы 2019-2020 [DVDrip, WEB-DLRip, HDrip] (DUB, MVO) [ 2.18 GB ] Годзилла 2: Король монстров / Godzilla: King of the Monsters [2019 BDRip] DUB [ Blu-Ray EUR] bober100 Скачать
1 | 0
Фильмы 2019-2020 [DVDrip, WEB-DLRip, HDrip] (DUB, MVO) [ 1.46 GB ] Годзилла 2: Король монстров / Godzilla: King of the Monsters [2019 BDRip] DUB [ Blu-Ray EUR] bober100 Скачать
5 | 0
Фильмы 2018 [DVDrip, WEB-DLRip, HDrip] (DUB, MVO) [ 767 MB ] Один король — одна / Un peuple et son roi [2018 HDRip ""] coc900 Скачать
2 | 0
Фильмы 2018 [DVDrip, WEB-DLRip, HDrip] (DUB, MVO) [ 2.13 GB ] Один король — одна / Un peuple et son roi [2018 BDRip] bober100 Скачать
3 | 0

28-11-2019 20:33  

Отключить всю рекламу на сайте

    Дорогой пользователь! Огромная просьба, поблагодарите релизера, оцените раздачу и оставьте свои комментарий, если Вы скачали Король через торрент бесплатно! Внесите свою лепту в развитие PiratBit!
    Комментировать посты могут только пользователи прошедшие не сложную регистрацию
    Показать сообщения:    

    Король через торрент
    Скачать бесплатно Король
    Король скачать торрент
    Король смотреть онлайн
    Cкачать фильм Король бесплатно
    Король скачать торрент в хорошем качестве
    Король смотреть онлайн бесплатно в хорошем качестве


    Вы не можете начинать темы
    Вы не можете отвечать на сообщения
    Вы не можете редактировать свои сообщения
    Вы не можете удалять свои сообщения
    Вы не можете голосовать в опросах
    Вы не можете прикреплять файлы к сообщениям
    Вы можете скачивать файлы