2 сезон

iTunes

1 сезон

1

iTunes

iTunes

iTunes

1 сезон

RePack

30

ИГРА 18+

pack

ВАЖНО

!!Акция!!

Alien_RageХит недели

RePack

MK11
pack

Забери бонус

RePack

jed

!!Акция!!

Alien_Rage

RePack

fifa19

RePack

Assassins Creed: Odyssey

RePack

NEED FOR SPEED™ PAYBACK

4 сезон

9 сезон

Бесстыжие 9 сезон

Все сериалы

все сериалы на PB.wtf

RePack

FAR CRY 5
  

Три дня лейтенанта Кравцова (Александр Даруга) / Серии 1-4 из 4 [2011, драма, военный, WEB-DLRip-AVC] ExKinoRay pb.wtf

Три дня лейтенанта Кравцова через торрент pb.wtf

Размер: 2.93 GB | Добавлен: 2 года 5 мес. назад | Торрент скачан:104 раза
Скачать  

08-05-2018 20:06 Три дня лейтенанта Кравцова Скачать торрент  

Название: Три дня лейтенанта Кравцова
Год выхода: 2011
Жанр: драма, военный
Режиссер: Александр Даруга
В ролях: Алексей Воробьев, Ксения Суркова, Владимир Гостюхин, Дмитрий Куличков, Николай Иванов, Алексей Гришин, Кирилл Бурдихин, Кирилл Кяро, Дмитрий Гусев, Владимир Ямненко, Дмитрий Лавров, Павел Галич

Описание
Командир взвода лейтенант Кравцов прибывает в действующую армию. Военная судьба, в среднем, отмеряла таким лейтенантам всего три дня жизни. За это время, Кравцов должен стать командиром для своих солдат и повести их в безнадежную атаку, спасая наступающий полк… Сможет ли он выжить в эти три дня? Ведь это так несправедливо - умирать в восемнадцать лет.



Страна: Украина, Россия
Продолжительность: 4 x ~ 00:44:38
Перевод: оригинал (не требуется)

Формат: MKV
Качество: WEB-DLRip-AVC
Видео: MPEG-4 AVC, 720x406 (16:9), 25.000 fps, 2100 Kbps, 0.293 bit/pixel
Аудио: 48 kHz, AC3, 2.0 ch, ~ 192 kbps avg
General
Unique ID : 188018156309688426475786222636060331490 (0x8D72FACFC04AFA5B874B1D462D8B4DE2)
Complete name : D:\Tri.dnya.leitenanta.Kravcova.2011.AVC.ExKinoRay\Tri.dnya.leitenanta.Kravcova.s02.2011.AVC.ExKinoRay.mkv
Format : Matroska
Format version : Version 2
File size : 774 MiB
Duration : 46 min
Overall bit rate : 2 334 kb/s
Movie name : Три дня лейтенанта Кравцова s02 2011 from ExKinoray
Encoded date : UTC 2018-05-08 14:23:32
Writing application : mkvmerge v5.6.0 ('Kenya Kane') built on May 27 2012 16:44:04
Writing library : libebml v1.2.3 + libmatroska v1.3.0

Video
ID : 1
Format : AVC
Format/Info : Advanced Video Codec
Format profile : High@L4.1
Format settings, CABAC : Yes
Format settings, ReFrames : 10 frames
Codec ID : V_MPEG4/ISO/AVC
Duration : 46 min
Bit rate : 2 140 kb/s
Width : 720 pixels
Height : 406 pixels
Display aspect ratio : 16:9
Frame rate mode : Constant
Frame rate : 25.000 FPS
Color space : YUV
Chroma subsampling : 4:2:0
Bit depth : 8 bits
Scan type : Progressive
Bits/(Pixel*Frame) : 0.293
Stream size : 695 MiB (90%)
Title : Enigma
Writing library : x264 core 152 r2851 ba24899
Encoding settings : cabac=1 / ref=10 / deblock=1:-2:-2 / analyse=0x3:0x113 / me=umh / subme=10 / psy=1 / psy_rd=1.05:0.10 / mixed_ref=1 / me_range=32 / chroma_me=1 / trellis=2 / 8x8dct=1 / cqm=0 / deadzone=21,11 / fast_pskip=0 / chroma_qp_offset=-3 / threads=12 / lookahead_threads=3 / sliced_threads=0 / nr=0 / decimate=0 / interlaced=0 / bluray_compat=0 / constrained_intra=0 / bframes=10 / b_pyramid=2 / b_adapt=2 / b_bias=0 / direct=3 / weightb=1 / open_gop=0 / weightp=2 / keyint=250 / keyint_min=25 / scenecut=40 / intra_refresh=0 / rc_lookahead=40 / rc=2pass / mbtree=0 / bitrate=2140 / ratetol=1.0 / qcomp=0.65 / qpmin=0 / qpmax=51 / qpstep=4 / cplxblur=20.0 / qblur=0.5 / vbv_maxrate=50000 / vbv_bufsize=62500 / nal_hrd=none / filler=0 / ip_ratio=1.40 / pb_ratio=1.30 / aq=1:1.00
Default : Yes
Forced : No
Color range : Limited
Color primaries : BT.709
Transfer characteristics : BT.709
Matrix coefficients : BT.709

Audio
ID : 2
Format : AC-3
Format/Info : Audio Coding 3
Mode extension : CM (complete main)
Format settings, Endianness : Big
Codec ID : A_AC3
Duration : 46 min
Bit rate mode : Constant
Bit rate : 192 kb/s
Channel(s) : 2 channels
Channel positions : Front: L R
Sampling rate : 48.0 kHz
Frame rate : 31.250 FPS (1536 spf)
Compression mode : Lossy
Stream size : 63.6 MiB (8%)
Language : Russian
Default : Yes
Forced : No
Релиз от:

Автор релиза: pb.wtf



Скачать Три дня лейтенанта Кравцова через торрент http://i031.radikal.ru/1406/19/c3892e431c8e.jpg Скачать фильм Три дня лейтенанта Кравцова через торрент бесплантно в хорошем качестве ОписаниеКомандир взвода лейтенант Кравцов прибывает в действующую армию. Военная судьба, в среднем, отмеряла таким лейтенантам всего три ... 10 10 4
Info! Золотая раздача, скачанное не засчитывается.
Торрент: Зарегистрирован [2018-05-08 20:06] · скачан: 104 раз
Статус: √ проверено
Размер: 2.93 GB
Как cкачать? Как скачать Три дня лейтенанта Кравцова через торрент | qTorrent

28-11-2019 20:33  

Отключить всю рекламу на сайте

    Дорогой пользователь! Огромная просьба, поблагодарите релизера, оцените раздачу и оставьте свои комментарий, если Вы скачали Три дня лейтенанта Кравцова через торрент бесплатно! Внесите свою лепту в развитие PiratBit!
    Комментировать посты могут только пользователи прошедшие не сложную регистрацию
    Показать сообщения:    

    Три дня лейтенанта Кравцова через торрент
    Скачать бесплатно Три дня лейтенанта Кравцова
    Три дня лейтенанта Кравцова скачать торрент
    Три дня лейтенанта Кравцова смотреть онлайн
    Cкачать фильм Три дня лейтенанта Кравцова бесплатно
    Три дня лейтенанта Кравцова скачать торрент в хорошем качестве
    Три дня лейтенанта Кравцова смотреть онлайн бесплатно в хорошем качестве


    Вы не можете начинать темы
    Вы не можете отвечать на сообщения
    Вы не можете редактировать свои сообщения
    Вы не можете удалять свои сообщения
    Вы не можете голосовать в опросах
    Вы не можете прикреплять файлы к сообщениям
    Вы можете скачивать файлы