Ссылка на приватное зеркало нашего сайта всего за 1$. Внимание количество ограничено!!!

2 сезон

iTunes

1 сезон

1

2 сезон

2 сезон

iTunes

1 сезон

RePack

30

Новинка

ВАЖНО

ИГРА 18+

pack

RePack

MK11
pack

Забери бонус

RePack

jed

!!Акция!!

Alien_Rage

RePack

fifa19

RePack

Assassins Creed: Odyssey

RePack

NEED FOR SPEED™ PAYBACK

4 сезон

9 сезон

Бесстыжие 9 сезон

Все сериалы

все сериалы на PB.wtf

RePack

FAR CRY 5
  

Дождь / The Rain / Сезон: 1 / Серии 1-8 из 8 (Кеннет Кайнц, Наташа Артю) [2018, Дания, США, фантастика, триллер, WEBRip] MVO [BaibaKo] pb.wtf

Дождь через торрент pb.wtf

Размер: 3.65 GB | Добавлен: 2 года 6 мес. назад | Торрент скачан:158 раз
Скачать  

09-05-2018 01:08 Дождь Скачать торрент  

Дождь / The Rain


  • Год выпуска: 2018
  • Страна: Дания, США
  • Жанр: фантастика, триллер
  • Продолжительность: ~ 00:48:00 (Серия)
  • Перевод: Профессиональный многоголосый [BaibaKo]
  • Режиссер: Кеннет Кайнц, Наташа Артю
  • В ролях:
    Альба Аугуст, Лукас Тоннесен, Миккель Боэ Фёльсгор, Лукас Локкен, Джессика Динаж, Сонни Линдберг, Анжела Бундалович, Ларс Симонсен, Ибен Хьейле, Йоханнес Кунке и др.



  • Шесть лет назад смертоносный вирус стёр с лица Земли почти всё человечество. В специальном бункере скрываются брат и сестра, но необходимость в скором времени заставляет их покинуть уютное убежище и выйти на поверхность. Они отправляются на поиски пропавшего без вести отца, который оставил после себя лишь записную книжку, где описаны вирус и опасности нового мира.

    Посреди останков былой роскоши они встречают других выживших, надеющихся найти очаги новой цивилизации. Но вокруг их ждёт только смерть. Особенно если не следовать главному правилу постапокалипсиса: никогда и ни при каких обстоятельствах не попадать под дождь.
  • Рейтинг:

    rating
  • Качество: WEBRip
  • Формат: :AVI
  • Видео кодек: XviD
  • Аудио кодек: MP3
  • Видео: 1452 Кбит/сек, 720*400 (16:9), в 25,000 кадров/сек, MPEG-4 Visual (XviD)
  • Аудио №1: русский 192 Кбит/сек, 48,0 КГц, 2 канала, MPEG Audio (MP3) |[BaibaKo]|
  • Релиз от: GEKADOL

    Общее
    Полное имя : F:\Дождь (The Rain)\The.Rain.s01e08.WEBRip.XviD.Rus.BaibaKo.avi
    Формат : AVI
    Формат/Информация : Audio Video Interleave
    Размер файла : 462 Мбайт
    Продолжительность : 39 м. 4 с.
    Общий поток : 1654 Кбит/сек
    Библиотека кодирования : Boilsoft AVI tool build 30012/release

    Видео
    Идентификатор : 0
    Формат : MPEG-4 Visual
    Профиль формата : Advanced Simple@L5
    Настройки формата : BVOP2
    Параметр BVOP формата : 2
    Параметр QPel формата : Нет
    Параметр GMC формата : Без точки перехода
    Параметр матрицы формата : Default (H.263)
    Идентификатор кодека : XVID
    Идентификатор кодека/Подсказка : XviD
    Продолжительность : 39 м. 4 с.
    Битрейт : 1452 Кбит/сек
    Ширина : 720 пикселей
    Высота : 400 пикселей
    Соотношение сторон : 16:9
    Частота кадров : 25,000 кадров/сек
    Цветовое пространство : YUV
    Субдискретизация насыщенности : 4:2:0
    Битовая глубина : 8 бит
    Тип развёртки : Прогрессивная
    Метод сжатия : С потерями
    Бит/(Пиксели*Кадры) : 0.202
    Размер потока : 406 Мбайт (88%)
    Библиотека кодирования : XviD 65

    Аудио
    Идентификатор : 1
    Формат : MPEG Audio
    Версия формата : Version 1
    Профиль формата : Layer 3
    Настройки формата : Joint stereo / MS Stereo
    Идентификатор кодека : 55
    Идентификатор кодека/Подсказка : MP3
    Продолжительность : 39 м. 4 с.
    Вид битрейта : Постоянный
    Битрейт : 192 Кбит/сек
    Каналы : 2 канала
    Частота : 48,0 КГц
    Метод сжатия : С потерями
    Задержка видео : 16 мс.
    Размер потока : 53,7 Мбайт (12%)
    Выравнивание : Разделение по промежуткам
    Продолжительность промежутка : 40 мс. (1,00 видеокадр)
    Время предзагрузки промежутка : 500 мс.
    Библиотека кодирования : LAME3.99.э™‡‡ §#цSРµ



    Скриншоты:
    скриншот   скриншот   скриншот   скриншот   скриншот   скриншот   скриншот   скриншот  
    скриншот  

    Раздача ведётся путём добавления новых серий. Добавлена 1-8 серия (09.05.2018).Просьба перекачать торрент файл.

    pb.wtf



  • Скачать Дождь через торрент http://pic1.kartinco.top/images/11/49mxa.jpg Скачать фильм Дождь через торрент бесплантно в хорошем качестве qw.png Шесть лет назад смертоносный вирус стёр с лица Земли почти всё человечество. В специальном бункере скрываются брат и сестра, но ... 10 10 1
    Info! Золотая раздача, скачанное не засчитывается.
    Торрент: Зарегистрирован [2018-05-09 01:08] · скачан: 158 раз
    Статус: √ проверено
    Размер: 3.65 GB
    Как cкачать? Как скачать Дождь через торрент | qTorrent

    % Раздел Тема Автор DL S | L
    Зарубежные сериалы [ 3.89 GB ] Дождь / The Rain / Сезон: 1 / Серии: 1-8 из 8 [2018 WEB-DLRip] MVO [Good People] bober100 Скачать
    2 | 0
    Зарубежные сериалы [ 13.05 GB ] Дождь / The Rain / Сезон: 1 / Серии: 1-8 из 8 [2018 WEBRip 1080p] MVO [TVShows] bober100 Скачать
    2 | 0
    Зарубежные сериалы [ 5.43 GB ] Дождь / The Rain / Сезон: 1 / Серии: 1-8 из 8 [2018 WEBRip] MVO [TVShows] bober100 Скачать
    1 | 0
    Зарубежные сериалы [ 4.18 GB ] Дождь / The Rain / Сезон: 1 / Серии: 1-8 из 8 [2018 WEB-DLRip] DVO [Кубик в Кубе] bober100 Скачать
    1 | 0
    Зарубежные сериалы [ 13.04 GB ] Дождь / The Rain / Сезон: 1 / Серии: 1-8 из 8 [2018 WEB-DL 1080p] [MVO] killermax2013 Скачать
    1 | 0
    Зарубежные сериалы [ 6.37 GB ] Дождь / The Rain / Сезон: 1 / Серии: 1-8 из 8 [2018 WEBRip] MVO [Jaskier] bober100 Скачать
    1 | 0
    Зарубежные сериалы [ 3.78 GB ] Дождь / The Rain / Сезон: 1 / Серии: 1-8 из 8 [2018 WEBRip] MVO [Jaskier] bober100 Скачать
    1 | 0

    28-11-2019 20:33  

    Отключить всю рекламу на сайте

      Дорогой пользователь! Огромная просьба, поблагодарите релизера, оцените раздачу и оставьте свои комментарий, если Вы скачали Дождь через торрент бесплатно! Внесите свою лепту в развитие PiratBit!
      Комментировать посты могут только пользователи прошедшие не сложную регистрацию
      Показать сообщения:    

      Дождь через торрент
      Скачать бесплатно Дождь
      Дождь скачать торрент
      Дождь смотреть онлайн
      Cкачать фильм Дождь бесплатно
      Дождь скачать торрент в хорошем качестве
      Дождь смотреть онлайн бесплатно в хорошем качестве


      Вы не можете начинать темы
      Вы не можете отвечать на сообщения
      Вы не можете редактировать свои сообщения
      Вы не можете удалять свои сообщения
      Вы не можете голосовать в опросах
      Вы не можете прикреплять файлы к сообщениям
      Вы можете скачивать файлы