2 сезон

iTunes

1 сезон

1

iTunes

iTunes

iTunes

1 сезон

RePack

30

ИГРА 18+

pack

ВАЖНО

!!Акция!!

Alien_RageХит недели

RePack

MK11
pack

Забери бонус

RePack

jed

!!Акция!!

Alien_Rage

RePack

fifa19

RePack

Assassins Creed: Odyssey

RePack

NEED FOR SPEED™ PAYBACK

4 сезон

9 сезон

Бесстыжие 9 сезон

Все сериалы

все сериалы на PB.wtf

RePack

FAR CRY 5
  

По законам военного времени / Сезон: 2 / Серии: 1-8 из 8 (Максим Мехеда) [2018, Военный, драма, история, HDTVRip-AVC] pb.wtf

По законам военного времени через торрент pb.wtf

Размер: 6.14 GB | Добавлен: 2 года 5 мес. назад | Торрент скачан:234 раза
Скачать  

09-05-2018 02:16 По законам военного времени Скачать торрент  

По законам военного времениГод выпуска: 2018
Страна: Россия, Украина
Жанр: Военный, драма, история
Продолжительность: ~ 00:48:00
Субтитры: отсутствуют

Режиссер: Максим Мехеда



В ролях:

Екатерина Климова, Евгений Воловенко, Максим Дрозд, Сергей Деньга, Алексей Шутов, Екатерина Соломатина, Павел Стонт, Дмитрий Сарансков, Светлана Зельбет, Андрей Клименков, Станислав Боклан, Виктория Литвиненко-Ясиновская, Анатолий Зиновенко, Александр Панкратов-Чёрный

Описание:

Осень 1941 года. Чудом вырвавшиеся из киевского котла, следователи военной прокуратуры Рокотов, Мирский и Елагина прибывают в Харьков, где уже полным ходом идет эвакуация. У них на руках важные сведения о деятельности немецкой шпионской организации, которые нужно срочно передать в центр. Но неожиданный приказ руководства вынуждает их задержаться в Харькове. Ведь вместе с эвакуируемыми предприятиями, под видом беженцев, на восток движутся группы немецких диверсантов, цель которых – диверсии и саботажи на военных заводах, расположенных на Урале и в Западной Сибири. Пытаясь раскрыть каналы переправки лазутчиков в советский тыл, Рокотов с Елагиной узнают, что действующая в Харькове организация напрямую связана с киевской группой, раскрытой ими за несколько часов до сдачи города. А куратор обеих этих группировок занимает высокий пост в Главной военной прокуратуре в Москве.

Качество: HDTVRip-AVC
Формат: MKV

Видео: MPEG-4 AVC, ~ 2000 Кбит/с, 1024x576, 25 кадр/с
Аудио: AC3, 2 ch, 192 Кбит/с
скриншот   скриншот   скриншот   скриншот  

Общее
Уникальный идентификатор : 237204830090560781015574564811455013827 (0xB273FD0FCEFEEAFC9A4AA5531C3323C3)
Полное имя : F:\Po zakonam voennogo vremeni 2.(2018).HDTVRip.(AVC).Files-x\01.Po zakonam voennogo vremeni 2.(2018).HDTVRip.(AVC).by.Серый1779.Files-x.mkv
Формат : Matroska
Версия формата : Version 2
Размер файла : 812 Мбайт
Продолжительность : 51 м. 45 с.
Общий поток : 2194 Кбит/сек
Дата кодирования : UTC 2018-05-05 17:55:15
Программа кодирования : mkvmerge v7.8.0 ('River Man') 32bit built on Apr 3 2015 12:11:22
Библиотека кодирования : libebml v1.3.1 + libmatroska v1.4.2

Видео
Идентификатор : 1
Формат : AVC
Формат/Информация : Advanced Video Codec
Профиль формата : High@L4.1
Параметр CABAC формата : Да
Параметр RefFrames формата : 9 кадров
Идентификатор кодека : V_MPEG4/ISO/AVC
Продолжительность : 51 м. 45 с.
Битрейт : 2000 Кбит/сек
Ширина : 1024 пикселя
Высота : 576 пикселей
Соотношение сторон : 16:9
Режим частоты кадров : Постоянный
Частота кадров : 25,000 кадров/сек
Цветовое пространство : YUV
Субдискретизация насыщенности : 4:2:0
Битовая глубина : 8 бит
Тип развёртки : Прогрессивная
Бит/(Пиксели*Кадры) : 0.136
Размер потока : 725 Мбайт (89%)
Библиотека кодирования : x264 core 146 r2538 121396c
Настройки программы : cabac=1 / ref=9 / deblock=1:-2:-1 / analyse=0x3:0x133 / me=umh / subme=9 / psy=1 / psy_rd=1.00:0.15 / mixed_ref=1 / me_range=32 / chroma_me=1 / trellis=2 / 8x8dct=1 / cqm=0 / deadzone=21,11 / fast_pskip=0 / chroma_qp_offset=-3 / threads=18 / lookahead_threads=3 / sliced_threads=0 / nr=0 / decimate=1 / interlaced=0 / bluray_compat=0 / constrained_intra=0 / bframes=9 / b_pyramid=2 / b_adapt=2 / b_bias=0 / direct=1 / weightb=1 / open_gop=0 / weightp=2 / keyint=250 / keyint_min=25 / scenecut=40 / intra_refresh=0 / rc=2pass / mbtree=0 / bitrate=2000 / ratetol=1.0 / qcomp=0.60 / qpmin=0 / qpmax=69 / qpstep=4 / cplxblur=20.0 / qblur=0.5 / ip_ratio=1.40 / pb_ratio=1.30 / aq=2:1.00
Default : Да
Forced : Нет
Цветовой диапазон : Limited
Основные цвета : BT.709
Характеристики трансфера : BT.709
Коэффициенты матрицы : BT.709

Аудио
Идентификатор : 2
Формат : AC-3
Формат/Информация : Audio Coding 3
Расширение режима : CM (complete main)
Параметр Endianness формата : Big
Идентификатор кодека : A_AC3
Продолжительность : 51 м. 45 с.
Вид битрейта : Постоянный
Битрейт : 192 Кбит/сек
Каналы : 2 канала
Расположение каналов : Front: L R
Частота : 48,0 КГц
Частота кадров : 31,250 кадров/сек (1536 spf)
Метод сжатия : С потерями
Размер потока : 71,1 Мбайт (9%)
Default : Да
Forced : Нет

pb.wtf



Скачать По законам военного времени через торрент http://i105.fastpic.ru/big/2018/0505/2f/ee6418f38b35c661a2257be6f8eccc2f.jpg Скачать фильм По законам военного времени через торрент бесплантно в хорошем качестве Описание: Осень 1941 года. Чудом вырвавшиеся из киевского котла, следователи военной прокуратуры Рокотов, Мирский и Елагина прибывают в ... 10 10 10
Торрент: Зарегистрирован [2018-05-09 02:17] · скачан: 234 раз
Статус: √ проверено
Размер: 6.14 GB
Как cкачать? Как скачать По законам военного времени через торрент | qTorrent

% Раздел Тема Автор DL S | L
Наши сериалы [ 9.37 GB ] По законам военного времени / Сезон: 2 / Серии: 1-8 из 8 [2018 Военный история WEB-DL 720p] bober100 Скачать
1 | 0
Наши сериалы [ 5.08 GB ] По законам военного времени / Сезон: 2 / Серии: 1-8 из 8 [2018 Военный история WEB-DLRip] bober100 Скачать
1 | 0
Наши сериалы [ 10.33 GB ] По законам военного времени / Сезон: 2 / Серии: 1-8 из 8 [2018 Военный история HDTVRip 720p] bober100 Скачать
1 | 0
Наши сериалы [ 16.6 GB ] По законам военного времени / Сезон: 2 / Серии: 1-8 из 8 [2018 Военный история HDTV 1080i] bober100 Скачать
1 | 0
Наши сериалы [ 5.3 GB ] По законам военного времени / Сезон: 2 / Серии: 1-8 из 8 [2018военный SATRip-AVC] aleksan55 Скачать
1 | 0
Наши сериалы [ 5.6 GB ] По законам военного времени / Сезон: 2 / Серии: 1-8 из 8 [2018 Военный история HDTVRip] bober100 Скачать
1 | 0
Наши сериалы [ 5.16 GB ] По законам военного времени / Сезон: 2 / Серии: 1-8 из 8 [2018 Военный история SATRip] bober100 Скачать
1 | 0

28-11-2019 20:33  

Отключить всю рекламу на сайте

20-05-2018 10:52 По законам военного времени Скачать торрент  

ФИЛЬМ отличный...да есть элементы фантастики =тоесть всё время находят ( дела) как бы случайно ..то там тотам.Хотя сюжет неплох и любовь без пошлостей и показана Тупая система Страны уничтожающая лучших людей ..А потом какбы отпускающая и протите мол ошиблись............37год и прочие ....Ужас и страх от Нквд и проче[й мрази........ Но приятный фильм Смотреть НУЖНО жаль мало серий могли бы и растянуть.................Спасибо ЗА раздачуpb.wtf



    Дорогой пользователь! Огромная просьба, поблагодарите релизера, оцените раздачу и оставьте свои комментарий, если Вы скачали По законам военного времени через торрент бесплатно! Внесите свою лепту в развитие PiratBit!
    Комментировать посты могут только пользователи прошедшие не сложную регистрацию
    Показать сообщения:    

    По законам военного времени через торрент
    Скачать бесплатно По законам военного времени
    По законам военного времени скачать торрент
    По законам военного времени смотреть онлайн
    Cкачать фильм По законам военного времени бесплатно
    По законам военного времени скачать торрент в хорошем качестве
    По законам военного времени смотреть онлайн бесплатно в хорошем качестве


    Вы не можете начинать темы
    Вы не можете отвечать на сообщения
    Вы не можете редактировать свои сообщения
    Вы не можете удалять свои сообщения
    Вы не можете голосовать в опросах
    Вы не можете прикреплять файлы к сообщениям
    Вы можете скачивать файлы