Ссылка на приватное зеркало нашего сайта всего за 1$. Внимание количество ограничено!!!

2 сезон

iTunes

1 сезон

1

iTunes

iTunes

iTunes

1 сезон

RePack

30

ИГРА 18+

pack

ВАЖНО

!!Акция!!

Alien_RageХит недели

RePack

MK11
pack

Забери бонус

RePack

jed

!!Акция!!

Alien_Rage

RePack

fifa19

RePack

Assassins Creed: Odyssey

RePack

NEED FOR SPEED™ PAYBACK

4 сезон

9 сезон

Бесстыжие 9 сезон

Все сериалы

все сериалы на PB.wtf

RePack

FAR CRY 5
  

По законам военного времени / Сезон: 2 / Серии: 1-8 из 8 (Максим Мехеда) [2018, Военный, драма, история, HDTVRip 720p] pb.wtf

По законам военного времени через торрент pb.wtf

Размер: 10.33 GB | Добавлен: 2 года 5 мес. назад | Торрент скачан:186 раз
Скачать  

09-05-2018 07:30 По законам военного времени Скачать торрент  

По законам военного времениГод выпуска: 2018
Страна: Россия, Украина
Жанр: Военный, драма, история
Продолжительность: ~ 00:48:00
Субтитры: отсутствуют

Режиссер: Максим Мехеда



В ролях:

Екатерина Климова, Евгений Воловенко, Максим Дрозд, Сергей Деньга, Алексей Шутов, Екатерина Соломатина, Павел Стонт, Дмитрий Сарансков, Светлана Зельбет, Андрей Клименков, Станислав Боклан, Виктория Литвиненко-Ясиновская, Анатолий Зиновенко, Александр Панкратов-Чёрный

Описание:

Осень 1941 года. Чудом вырвавшиеся из киевского котла, следователи военной прокуратуры Рокотов, Мирский и Елагина прибывают в Харьков, где уже полным ходом идет эвакуация. У них на руках важные сведения о деятельности немецкой шпионской организации, которые нужно срочно передать в центр. Но неожиданный приказ руководства вынуждает их задержаться в Харькове. Ведь вместе с эвакуируемыми предприятиями, под видом беженцев, на восток движутся группы немецких диверсантов, цель которых – диверсии и саботажи на военных заводах, расположенных на Урале и в Западной Сибири. Пытаясь раскрыть каналы переправки лазутчиков в советский тыл, Рокотов с Елагиной узнают, что действующая в Харькове организация напрямую связана с киевской группой, раскрытой ими за несколько часов до сдачи города. А куратор обеих этих группировок занимает высокий пост в Главной военной прокуратуре в Москве.

Качество: HDTVRip 720p
Формат: MKV

Видео: MPEG-4 AVC, ~ 3500 Кбит/с, 1280x720, 25 fps
Аудио: AC3, 2 ch, 192 Кбит/с
скриншот   скриншот   скриншот  

Общее
Уникальный идентификатор : 191410100616620752359427588705019590330 (0x90003E93DA9D03A293CF115C47E576BA)
Полное имя : F:\Po zakonam voennogo vremeni 2.HDTVRip.(720p).GeneralFilm\01.Po zakonam voennogo vremeni 2.HDTVRip.(720p).GeneralFilm.mkv
Формат : Matroska
Версия формата : Version 2
Размер файла : 1,34 Гбайт
Продолжительность : 51 м. 45 с.
Общий поток : 3694 Кбит/сек
Дата кодирования : UTC 2018-05-05 16:42:45
Программа кодирования : mkvmerge v6.1.0 ('Old Devil') built on Mar 4 2013 09:10:42
Библиотека кодирования : libebml v1.3.0 + libmatroska v1.4.0

Видео
Идентификатор : 1
Формат : AVC
Формат/Информация : Advanced Video Codec
Профиль формата : High@L4.1
Параметр CABAC формата : Да
Параметр RefFrames формата : 9 кадров
Идентификатор кодека : V_MPEG4/ISO/AVC
Продолжительность : 51 м. 45 с.
Битрейт : 3500 Кбит/сек
Ширина : 1280 пикселей
Высота : 720 пикселей
Соотношение сторон : 16:9
Режим частоты кадров : Постоянный
Частота кадров : 25,000 кадров/сек
Цветовое пространство : YUV
Субдискретизация насыщенности : 4:2:0
Битовая глубина : 8 бит
Тип развёртки : Прогрессивная
Бит/(Пиксели*Кадры) : 0.152
Размер потока : 1,24 Гбайт (93%)
Библиотека кодирования : x264 core 130 r2273 b3065e6
Настройки программы : cabac=1 / ref=9 / deblock=1:-2:-1 / analyse=0x3:0x133 / me=umh / subme=9 / psy=1 / psy_rd=1.00:0.15 / mixed_ref=1 / me_range=32 / chroma_me=1 / trellis=2 / 8x8dct=1 / cqm=0 / deadzone=21,11 / fast_pskip=0 / chroma_qp_offset=-3 / threads=18 / lookahead_threads=3 / sliced_threads=0 / nr=0 / decimate=0 / interlaced=0 / bluray_compat=0 / constrained_intra=0 / bframes=9 / b_pyramid=2 / b_adapt=2 / b_bias=0 / direct=3 / weightb=1 / open_gop=0 / weightp=2 / keyint=250 / keyint_min=25 / scenecut=40 / intra_refresh=0 / rc=2pass / mbtree=0 / bitrate=3500 / ratetol=1.0 / qcomp=0.60 / qpmin=0 / qpmax=69 / qpstep=4 / cplxblur=20.0 / qblur=0.5 / ip_ratio=1.40 / pb_ratio=1.30 / aq=2:1.00
Default : Да
Forced : Нет
Цветовой диапазон : Limited
Основные цвета : BT.709
Характеристики трансфера : BT.709
Коэффициенты матрицы : BT.709

Аудио
Идентификатор : 2
Формат : AC-3
Формат/Информация : Audio Coding 3
Расширение режима : CM (complete main)
Параметр Endianness формата : Big
Идентификатор кодека : A_AC3
Продолжительность : 51 м. 45 с.
Вид битрейта : Постоянный
Битрейт : 192 Кбит/сек
Каналы : 2 канала
Расположение каналов : Front: L R
Частота : 48,0 КГц
Частота кадров : 31,250 кадров/сек (1536 spf)
Метод сжатия : С потерями
Размер потока : 71,1 Мбайт (5%)
Default : Да
Forced : Нет

pb.wtf



Скачать По законам военного времени через торрент http://i105.fastpic.ru/big/2018/0505/2f/ee6418f38b35c661a2257be6f8eccc2f.jpg Скачать фильм По законам военного времени через торрент бесплантно в хорошем качестве Описание: Осень 1941 года. Чудом вырвавшиеся из киевского котла, следователи военной прокуратуры Рокотов, Мирский и Елагина прибывают в ... 10 10 10
Info! Золотая раздача, скачанное не засчитывается.
Торрент: Зарегистрирован [2018-05-09 07:30] · скачан: 186 раз
Статус: √ проверено
Размер: 10.33 GB
Как cкачать? Как скачать По законам военного времени через торрент | qTorrent

% Раздел Тема Автор DL S | L
Наши сериалы [ 6.14 GB ] По законам военного времени / Сезон: 2 / Серии: 1-8 из 8 [2018 Военный история HDTVRip-AVC] bober100 Скачать
1 | 0
Наши сериалы [ 9.37 GB ] По законам военного времени / Сезон: 2 / Серии: 1-8 из 8 [2018 Военный история WEB-DL 720p] bober100 Скачать
1 | 0
Наши сериалы [ 5.08 GB ] По законам военного времени / Сезон: 2 / Серии: 1-8 из 8 [2018 Военный история WEB-DLRip] bober100 Скачать
1 | 0
Наши сериалы [ 16.6 GB ] По законам военного времени / Сезон: 2 / Серии: 1-8 из 8 [2018 Военный история HDTV 1080i] bober100 Скачать
1 | 0
Наши сериалы [ 5.3 GB ] По законам военного времени / Сезон: 2 / Серии: 1-8 из 8 [2018военный SATRip-AVC] aleksan55 Скачать
1 | 0
Наши сериалы [ 5.6 GB ] По законам военного времени / Сезон: 2 / Серии: 1-8 из 8 [2018 Военный история HDTVRip] bober100 Скачать
1 | 0
Наши сериалы [ 5.16 GB ] По законам военного времени / Сезон: 2 / Серии: 1-8 из 8 [2018 Военный история SATRip] bober100 Скачать
1 | 0

28-11-2019 20:33  

Отключить всю рекламу на сайте

    Дорогой пользователь! Огромная просьба, поблагодарите релизера, оцените раздачу и оставьте свои комментарий, если Вы скачали По законам военного времени через торрент бесплатно! Внесите свою лепту в развитие PiratBit!
    Комментировать посты могут только пользователи прошедшие не сложную регистрацию
    Показать сообщения:    

    По законам военного времени через торрент
    Скачать бесплатно По законам военного времени
    По законам военного времени скачать торрент
    По законам военного времени смотреть онлайн
    Cкачать фильм По законам военного времени бесплатно
    По законам военного времени скачать торрент в хорошем качестве
    По законам военного времени смотреть онлайн бесплатно в хорошем качестве


    Вы не можете начинать темы
    Вы не можете отвечать на сообщения
    Вы не можете редактировать свои сообщения
    Вы не можете удалять свои сообщения
    Вы не можете голосовать в опросах
    Вы не можете прикреплять файлы к сообщениям
    Вы можете скачивать файлы