Ссылка на приватное зеркало нашего сайта всего за 1$. Внимание количество ограничено!!!

2 сезон

iTunes

1 сезон

1

iTunes

iTunes

iTunes

1 сезон

RePack

30

ИГРА 18+

pack

ВАЖНО

!!Акция!!

Alien_RageХит недели

RePack

MK11
pack

Забери бонус

RePack

jed

!!Акция!!

Alien_Rage

RePack

fifa19

RePack

Assassins Creed: Odyssey

RePack

NEED FOR SPEED™ PAYBACK

4 сезон

9 сезон

Бесстыжие 9 сезон

Все сериалы

все сериалы на PB.wtf

RePack

FAR CRY 5
  

Остаться в живых / Сезон: 1 / Серии: 1-6 из 6 (Андрей Малюков) [2018, Военный, драма, мелодрама, SATRip] pb.wtf

Остаться в живых через торрент pb.wtf

Размер: 4.02 GB | Добавлен: 2 года 5 мес. назад | Торрент скачан:375 раз
Скачать  

09-05-2018 08:41 Остаться в живых Скачать торрент  

Остаться в живыхГод выпуска: 2018
Страна: Россия
Жанр: Военный, драма, мелодрама
Продолжительность: ~ 00:48:00 серия
Субтитры: отсутствуют

Режиссер: Андрей Малюков



В ролях:

Егор Корешков, Михаил Пореченков, Александр Горбатов (II), Вера Панфилова, Дирк Мартенс, Олег Мазуров, Юрий Маслак, Евгения Дмитриева, Борис Каморзин, Денис Константинов, Сослан Фидаров, Юрий Уткин, Дмитрий Арбенин, Илья Сологуб, Юрий Титов, Константин Адаев

Описание:

Осень 1941 года. Немецкие войска продвигаются к Москве. Старшина Петр Стрельченко (Александр Горбатов) вместе с военным инженером Борисом Жихаревым (Егор Корешков) во время боя с немцами собираются взорвать стратегически важную для врага плотину. Но попытка срывается. Спасая Петру жизнь, Борис в последний момент не решается нажать на рычаг и, в итоге, оказывается в плену...

Качество: SATRip
Формат: AVI

Видео: XviD, 1820 Кбит/с, 720x400
Аудио: AC3, 2 ch, 192 Кбит/с
скриншот  скриншот  скриншот  скриншот  скриншот  скриншот  

Общее
Полное имя : E:\ОСТАТЬСЯ В ЖИВЫХ (2018)\Ostatsa.v.Zhivyh.01.SATRip.[riperam.org].avi
Формат : AVI
Формат/Информация : Audio Video Interleave
Размер файла : 689 Мбайт
Продолжительность : 48 м. 9 с.
Общий поток : 2002 Кбит/сек
Программа кодирования : VirtualDubMod 1.5.10.3 | www.virtualdub-fr.org || (build 2550/release)
Библиотека кодирования : VirtualDubMod build 2550/release

Видео
Идентификатор : 0
Формат : MPEG-4 Visual
Профиль формата : Advanced Simple@L5
Настройки формата : BVOP2
Параметр BVOP формата : 2
Параметр QPel формата : Нет
Параметр GMC формата : Без точки перехода
Параметр матрицы формата : Default (H.263)
Идентификатор кодека : XVID
Идентификатор кодека/Подсказка : XviD
Продолжительность : 48 м. 9 с.
Битрейт : 1800 Кбит/сек
Ширина : 720 пикселей
Высота : 400 пикселей
Соотношение сторон : 16:9
Частота кадров : 25,000 кадров/сек
Цветовое пространство : YUV
Субдискретизация насыщенности : 4:2:0
Битовая глубина : 8 бит
Тип развёртки : Прогрессивная
Метод сжатия : С потерями
Бит/(Пиксели*Кадры) : 0.250
Размер потока : 620 Мбайт (90%)
Библиотека кодирования : XviD 1.2.1 (UTC 2008-12-04)

Аудио
Идентификатор : 1
Формат : AC-3
Формат/Информация : Audio Coding 3
Идентификатор кодека : 2000
Продолжительность : 48 м. 9 с.
Вид битрейта : Постоянный
Битрейт : 192 Кбит/сек
Каналы : 2 канала
Расположение каналов : Front: L R
Частота : 48,0 КГц
Частота кадров : 31,250 кадров/сек (1536 SPF)
Битовая глубина : 16 бит
Метод сжатия : С потерями
Размер потока : 66,1 Мбайт (10%)
Выравнивание : Разделение по промежуткам
Продолжительность промежутка : 40 мс. (1,00 видеокадр)
Время предзагрузки промежутка : 500 мс.
ServiceKind/String : Complete Main

Внимание! Раздача ведётся путём добавления новых серий; при каждом добавлении создfётся новый торрент. Чтобы начать докачку новой серии, пользователям необходимо сделать следующее: (1) остановить скачивание, (2) удалить старый торрент у себя из клиента (старые серии удалять не надо), (3) скачать новый торрент и запустить его у себя в клиенте вместо старого, при этом указать клиенту путь в старую папку куда и должно происходить скачивание новых серий.

Ваш клиент при этом должен произвести хеширование (проверку) старой папки (если не производит сам - помогите ему сделать это), и будет докачивать только те серии которых у вас ещё нет. Старые серии при этом не удаляются, а продолжают раздаваться!

Eсли вы уже удалили старые серии, то предотвратить повторную закачку старых серий можно, отжав галочку в соответсвующих местах при запуске нового торрента.
pb.wtf



Скачать Остаться в живых через торрент http://i105.fastpic.ru/big/2018/0509/91/f807fc9dbf0c9af40dc428972ad9d291.jpg Скачать фильм Остаться в живых через торрент бесплантно в хорошем качестве Описание: Осень 1941 года. Немецкие войска продвигаются к Москве. Старшина Петр Стрельченко (Александр Горбатов) вместе с военным инженером ... 9.4 10 14
Торрент: Зарегистрирован [2018-05-09 08:50] · скачан: 375 раз
Статус: √ проверено
Размер: 4.02 GB
Как cкачать? Как скачать Остаться в живых через торрент | qTorrent

% Раздел Тема Автор DL S | L
Остаться в Живых (LOST) [ 111.67 GB ] Остаться в живых / Lost [2004-2010 BDRip ] Бумер Скачать
1 | 0
Остаться в Живых (LOST) [ 9.71 GB ] Остаться в живых - Сезон: 6 / Lost [2010 HDTVRip] Joup Скачать
1 | 0

28-11-2019 20:33  

Отключить всю рекламу на сайте

11-05-2018 11:27 Остаться в живых Скачать торрент  

Смотрибельно.Для фанатов -Пореченков играет второстепенную роль и практически не участвует в фильме.pb.wtf



    Дорогой пользователь! Огромная просьба, поблагодарите релизера, оцените раздачу и оставьте свои комментарий, если Вы скачали Остаться в живых через торрент бесплатно! Внесите свою лепту в развитие PiratBit!
    Комментировать посты могут только пользователи прошедшие не сложную регистрацию
    Показать сообщения:    

    Остаться в живых через торрент
    Скачать бесплатно Остаться в живых
    Остаться в живых скачать торрент
    Остаться в живых смотреть онлайн
    Cкачать фильм Остаться в живых бесплатно
    Остаться в живых скачать торрент в хорошем качестве
    Остаться в живых смотреть онлайн бесплатно в хорошем качестве


    Вы не можете начинать темы
    Вы не можете отвечать на сообщения
    Вы не можете редактировать свои сообщения
    Вы не можете удалять свои сообщения
    Вы не можете голосовать в опросах
    Вы не можете прикреплять файлы к сообщениям
    Вы можете скачивать файлы