2 сезон

iTunes

MVO

1

2 сезон

iTunes

iTunes

1 сезон

RePack

30

Ultimate

ВАЖНО

ИГРА 18+

pack

RePack

MK11
pack

Легкие деньги

RePack

jed

RePack

fifa19

RePack

RDR2

RePack

NEED FOR SPEED™ PAYBACK

4 сезон

9 сезон

Бесстыжие 9 сезон

Все сериалы

все сериалы на PB.wtf

RePack

FAR CRY 5

Anonymous, доброй ночи, мы не успеваем собрать деньги на оплату серверов за декабрь и январь, помогите нам пожалуйста в это трудное время. В качестве благодарности мы отключим Вам всю рекламу на сайте (укажите свой ник в строку Ваше имя)!

×
  
Magnet ссылка

Уиджи: Проклятие Вероники / Verónica (Пако Пласа) [2017 г., ужасы, драма, BDRip-AVC] Dub [iTunes] pb.wtf

Уиджи: Проклятие Вероники через торрент pb.wtf

Размер: 1.41 GB | Добавлен: 2 года 8 мес. назад | Торрент скачан:203 раза
Скачать  

09-05-2018 10:00 Уиджи: Проклятие Вероники Скачать торрент  

Уиджи: Проклятие Вероники / Verónica

Год выпуска: 2017
Страна: Испания
Жанр: ужасы, драма
Продолжительность: 01:45:22
Перевод: Дубляж [iTunes]
Навигация по главам: есть

Режиссер

Пако Пласа

rating

В ролях

Сандра Эскасена (Verónica), Бруна Гонсалес (Lucía), Клаудия Плейсер (Irene), Иван Чаверо (Antoñito), Ана Торрент (Ana), Консуэло Трухильо (Hermana Muerte), Анхела Фабиан (Rosa), Карла Кампра (Diana), Чема Адева (Romero), Миранда Гас (Rodríguez), Луис Ральо (Navarro), Найара Фейто (Vecina enfrente)

Описание

Уиджи - это доска для спиритических сеансов вызова душ умерших. Ее называют доской Дьявола, потому что общение с загробным миром не обходится для живого человека без последствий. Тот, кто берет в руки Уиджи, должен знать, что она обладает страшной властью открывать врата чудовищному злу, противостоять которому практически невозможно.

Качество: BDRip-AVC
Формат: MKV
Видео кодек: AVC
Аудио кодек: AC3
Видео: H.264, 956x516 (1.85:1), 1533 kbps, 24 fps
Аудио: AC3, 6 ch, 48 kHz, 384 kbps
скриншот  скриншот  скриншот  

General
Unique ID : 197859107226168971559606073831375906031 (0x94DA4726EC29A2638CB3493B670E24EF)
Complete name : D:\Uidzhy.Proklyatiye.Veroniki.2017.RUS.BDRip.x264.-HELLYWOOD.mkv
Format : Matroska
Format version : Version 4 / Version 2
File size : 1.41 GiB
Duration : 1h 45mn
Overall bit rate : 1 917 Kbps
Movie name : Verónica (2017)
Encoded date : UTC 2018-05-08 09:39:26
Writing application : mkvmerge v5.9.0 ('On The Loose') built on Dec 15 2012 16:39:58
Writing library : libebml v1.3.0 + libmatroska v1.4.0

Video
ID : 1
Format : AVC
Format/Info : Advanced Video Codec
Format profile : High@L4.1
Format settings, CABAC : Yes
Format settings, ReFrames : 12 frames
Codec ID : V_MPEG4/ISO/AVC
Duration : 1h 45mn
Bit rate : 1 533 Kbps
Width : 956 pixels
Height : 516 pixels
Display aspect ratio : 1.85:1
Frame rate mode : Constant
Frame rate : 24.000 fps
Color space : YUV
Chroma subsampling : 4:2:0
Bit depth : 8 bits
Scan type : Progressive
Bits/(Pixel*Frame) : 0.129
Stream size : 1.10 GiB (78%)
Title : potroks
Writing library : x264 core 155 r2901M 7d0ff22
Encoding settings : cabac=1 / ref=12 / deblock=1:-1:-1 / analyse=0x3:0x133 / me=umh / subme=11 / psy=1 / psy_rd=1.00:0.05 / mixed_ref=1 / me_range=48 / chroma_me=1 / trellis=2 / 8x8dct=1 / cqm=0 / deadzone=21,11 / fast_pskip=0 / chroma_qp_offset=-3 / threads=9 / lookahead_threads=2 / sliced_threads=0 / nr=0 / decimate=0 / interlaced=0 / bluray_compat=0 / constrained_intra=0 / bframes=12 / b_pyramid=2 / b_adapt=2 / b_bias=0 / direct=3 / weightb=1 / open_gop=0 / weightp=2 / keyint=240 / keyint_min=23 / scenecut=40 / intra_refresh=0 / rc_lookahead=100 / rc=2pass / mbtree=0 / bitrate=1533 / ratetol=1.0 / qcomp=0.70 / qpmin=0 / qpmax=69 / qpstep=4 / cplxblur=20.0 / qblur=0.5 / vbv_maxrate=50000 / vbv_bufsize=50000 / nal_hrd=none / filler=0 / ip_ratio=1.40 / pb_ratio=1.30 / aq=2:0.80
Language : English
Default : Yes
Forced : No
Color range : Limited
Color primaries : BT.709
Transfer characteristics : BT.709
Matrix coefficients : BT.709

Audio
ID : 2
Format : AC-3
Format/Info : Audio Coding 3
Mode extension : CM (complete main)
Format settings, Endianness : Big
Codec ID : A_AC3
Duration : 1h 45mn
Bit rate mode : Constant
Bit rate : 384 Kbps
Channel(s) : 6 channels
Channel positions : Front: L C R, Side: L R, LFE
Sampling rate : 48.0 KHz
Frame rate : 31.250 fps (1536 spf)
Compression mode : Lossy
Stream size : 289 MiB (20%)
Title : Dub | DD 5.1 @ 384 kbps - iTunes
Language : Russian
Default : Yes
Forced : Yes

Menu
00:00:00.000 : :Chapter 1
00:07:50.375 : :Chapter 2
00:17:37.541 : :Chapter 3
00:27:09.458 : :Chapter 4
00:35:07.833 : :Chapter 5
00:42:55.333 : :Chapter 6
00:53:43.167 : :Chapter 7
01:02:12.542 : :Chapter 8
01:10:09.542 : :Chapter 9
01:18:47.833 : :Chapter 10
01:27:14.583 : :Chapter 11
01:37:33.875 : :Chapter 12

pb.wtf



Скачать Уиджи: Проклятие Вероники через торрент http://lostpix.com/img/2018-05/07/ykw0jnxsp56k68euo4rcob252.jpg Скачать фильм Уиджи: Проклятие Вероники через торрент бесплантно в хорошем качестве ОписаниеУиджи - это доска для спиритических сеансов вызова душ умерших. Ее называют доской Дьявола, потому что общение с загробным миром не ... 7.8 10 8
Торрент: Зарегистрирован [2018-05-09 10:00] · скачан: 203 раз
Статус: √ проверено
Размер: 1.41 GB
Как cкачать? Как скачать Уиджи: Проклятие Вероники через торрент | UTorrent

% Раздел Тема Автор DL S | L
Фильмы (Blu-ray, BD-Remux, HDDVD) [ 26.43 GB ] Уиджи: Проклятие Вероники / Verónica [2017 BD Remux 1080p] bober100 Скачать
1 | 0
Фильмы 2017 [DVDrip, WEB-DLRip, HDrip] (DUB, MVO) [ 1.79 GB ] Уиджи: Проклятие Вероники / Verónica [2017 BDRip-AVC] bober100 Скачать
1 | 0
Фильмы 2017 [DVDrip, WEB-DLRip, HDrip] (DUB, MVO) [ 1.41 GB ] Уиджи: Проклятие Вероники / Verónica [2017 BDRip] - Twi7ter Скачать
1 | 0
Фильмы 2017 [DVDrip, WEB-DLRip, HDrip] (DUB, MVO) [ 2.05 GB ] Уиджи: Проклятие Вероники / Verónica [2017 HDRip] bober100 Скачать
1 | 0
Фильмы [HD 720p, 1080p] (Хороший звук DUB, MVO) [ 5.93 GB ] Уиджи: Проклятие Вероники / Verónica [2017 BDRip 720p] bober100 Скачать
1 | 0
Фильмы [HD 720p, 1080p] (Хороший звук DUB, MVO) [ 10.44 GB ] Уиджи: Проклятие Вероники / Verónica [2017 BDRip 1080p] bober100 Скачать
1 | 0
Фильмы 2017 [DVDrip, WEB-DLRip, HDrip] (DUB, MVO) [ 1.41 GB ] Уиджи: Проклятие Вероники / Verónica [2017 BDRip] bober100 Скачать
1 | 0

28-11-2019 20:33  

Отключить всю рекламу на сайте

    Дорогой пользователь! Огромная просьба, поблагодарите релизера, оцените раздачу и оставьте свои комментарий, если Вы скачали Уиджи: Проклятие Вероники через торрент бесплатно! Внесите свою лепту в развитие PiratBit!
    Комментировать посты могут только пользователи прошедшие не сложную регистрацию
    Показать сообщения:    

    Уиджи: Проклятие Вероники через торрент
    Скачать бесплатно Уиджи: Проклятие Вероники
    Уиджи: Проклятие Вероники скачать торрент
    Уиджи: Проклятие Вероники смотреть онлайн
    Cкачать фильм Уиджи: Проклятие Вероники бесплатно
    Уиджи: Проклятие Вероники скачать торрент в хорошем качестве
    Уиджи: Проклятие Вероники смотреть онлайн бесплатно в хорошем качестве


    Вы не можете начинать темы
    Вы не можете отвечать на сообщения
    Вы не можете редактировать свои сообщения
    Вы не можете удалять свои сообщения
    Вы не можете голосовать в опросах
    Вы не можете прикреплять файлы к сообщениям
    Вы можете скачивать файлы