Ссылка на приватное зеркало нашего сайта всего за 1$. Внимание количество ограничено!!!

2 сезон

iTunes

1 сезон

1

iTunes

iTunes

iTunes

1 сезон

RePack

30

ИГРА 18+

pack

ВАЖНО

!!Акция!!

Alien_RageХит недели

RePack

MK11
pack

Забери бонус

RePack

jed

!!Акция!!

Alien_Rage

RePack

fifa19

RePack

Assassins Creed: Odyssey

RePack

NEED FOR SPEED™ PAYBACK

4 сезон

9 сезон

Бесстыжие 9 сезон

Все сериалы

все сериалы на PB.wtf

RePack

FAR CRY 5
  

По законам военного времени / Сезон: 2 / Серии: 1-8 из 8 (Максим Мехеда) [2018, Военный, драма, история, WEB-DLRip] pb.wtf

По законам военного времени через торрент pb.wtf

Размер: 5.08 GB | Добавлен: 2 года 5 мес. назад | Торрент скачан:296 раз
Скачать  

09-05-2018 10:18 По законам военного времени Скачать торрент  

По законам военного времениГод выпуска: 2018
Страна: Россия, Украина
Жанр: Военный, драма, история
Продолжительность: ~ 00:48:00
Субтитры: отсутствуют

Режиссер: Максим Мехеда



В ролях:

Екатерина Климова, Евгений Воловенко, Максим Дрозд, Сергей Деньга, Алексей Шутов, Екатерина Соломатина, Павел Стонт, Дмитрий Сарансков, Светлана Зельбет, Андрей Клименков, Станислав Боклан, Виктория Литвиненко-Ясиновская, Анатолий Зиновенко, Александр Панкратов-Чёрный

Описание:

Осень 1941 года. Чудом вырвавшиеся из киевского котла, следователи военной прокуратуры Рокотов, Мирский и Елагина прибывают в Харьков, где уже полным ходом идет эвакуация. У них на руках важные сведения о деятельности немецкой шпионской организации, которые нужно срочно передать в центр. Но неожиданный приказ руководства вынуждает их задержаться в Харькове. Ведь вместе с эвакуируемыми предприятиями, под видом беженцев, на восток движутся группы немецких диверсантов, цель которых – диверсии и саботажи на военных заводах, расположенных на Урале и в Западной Сибири. Пытаясь раскрыть каналы переправки лазутчиков в советский тыл, Рокотов с Елагиной узнают, что действующая в Харькове организация напрямую связана с киевской группой, раскрытой ими за несколько часов до сдачи города. А куратор обеих этих группировок занимает высокий пост в Главной военной прокуратуре в Москве.

Качество: WEB-DLRip
Формат: AVI

Видео: XviD, ~ 1600 Кбит/с, 720x400
Аудио: AC3, 2 ch, 192 Кбит/с
скриншот  скриншот  скриншот  

Общее
Полное имя : F:\По законам военного времени 2 (2018).WEB-DLRip.Files-x\1.По законам военного времени 2 (2018).WEB-DLRip.Files-x.avi
Формат : AVI
Формат/Информация : Audio Video Interleave
Размер файла : 649 Мбайт
Продолжительность : 52 м. 16 с.
Общий поток : 1735 Кбит/сек
Программа кодирования : VirtualDubMod 1.5.10.3 | www.virtualdub-fr.org || (build 2550/release)
Библиотека кодирования : VirtualDubMod build 2550/release

Видео
Идентификатор : 0
Формат : MPEG-4 Visual
Профиль формата : Advanced Simple@L5
Параметр BVOP формата : 1
Параметр QPel формата : Нет
Параметр GMC формата : Без точки перехода
Параметр матрицы формата : Выборочная
Идентификатор кодека : XVID
Идентификатор кодека/Подсказка : XviD
Продолжительность : 52 м. 16 с.
Битрейт : 1533 Кбит/сек
Ширина : 720 пикселей
Высота : 400 пикселей
Соотношение сторон : 16:9
Частота кадров : 25,000 кадров/сек
Цветовое пространство : YUV
Субдискретизация насыщенности : 4:2:0
Битовая глубина : 8 бит
Тип развёртки : Прогрессивная
Метод сжатия : С потерями
Бит/(Пиксели*Кадры) : 0.213
Размер потока : 573 Мбайт (88%)
Библиотека кодирования : XviD 73

Аудио
Идентификатор : 1
Формат : AC-3
Формат/Информация : Audio Coding 3
Расширение режима : CM (complete main)
Параметр Endianness формата : Big
Идентификатор кодека : 2000
Продолжительность : 52 м. 16 с.
Вид битрейта : Постоянный
Битрейт : 192 Кбит/сек
Каналы : 2 канала
Расположение каналов : Front: L R
Частота : 48,0 КГц
Частота кадров : 31,250 кадров/сек (1536 spf)
Метод сжатия : С потерями
Размер потока : 71,8 Мбайт (11%)
Выравнивание : Разделение по промежуткам
Продолжительность промежутка : 40 мс. (1,00 видеокадр)
Время предзагрузки промежутка : 500 мс.

pb.wtf



Скачать По законам военного времени через торрент http://i105.fastpic.ru/big/2018/0505/2f/ee6418f38b35c661a2257be6f8eccc2f.jpg Скачать фильм По законам военного времени через торрент бесплантно в хорошем качестве Описание: Осень 1941 года. Чудом вырвавшиеся из киевского котла, следователи военной прокуратуры Рокотов, Мирский и Елагина прибывают в ... 9.9 10 7
Торрент: Зарегистрирован [2018-05-09 10:18] · скачан: 296 раз
Статус: √ проверено
Размер: 5.08 GB
Как cкачать? Как скачать По законам военного времени через торрент | qTorrent

% Раздел Тема Автор DL S | L
Наши сериалы [ 6.14 GB ] По законам военного времени / Сезон: 2 / Серии: 1-8 из 8 [2018 Военный история HDTVRip-AVC] bober100 Скачать
1 | 0
Наши сериалы [ 9.37 GB ] По законам военного времени / Сезон: 2 / Серии: 1-8 из 8 [2018 Военный история WEB-DL 720p] bober100 Скачать
1 | 0
Наши сериалы [ 10.33 GB ] По законам военного времени / Сезон: 2 / Серии: 1-8 из 8 [2018 Военный история HDTVRip 720p] bober100 Скачать
1 | 0
Наши сериалы [ 16.6 GB ] По законам военного времени / Сезон: 2 / Серии: 1-8 из 8 [2018 Военный история HDTV 1080i] bober100 Скачать
1 | 0
Наши сериалы [ 5.3 GB ] По законам военного времени / Сезон: 2 / Серии: 1-8 из 8 [2018военный SATRip-AVC] aleksan55 Скачать
1 | 0
Наши сериалы [ 5.6 GB ] По законам военного времени / Сезон: 2 / Серии: 1-8 из 8 [2018 Военный история HDTVRip] bober100 Скачать
1 | 0
Наши сериалы [ 5.16 GB ] По законам военного времени / Сезон: 2 / Серии: 1-8 из 8 [2018 Военный история SATRip] bober100 Скачать
1 | 0

28-11-2019 20:33  

Отключить всю рекламу на сайте

    Дорогой пользователь! Огромная просьба, поблагодарите релизера, оцените раздачу и оставьте свои комментарий, если Вы скачали По законам военного времени через торрент бесплатно! Внесите свою лепту в развитие PiratBit!
    Комментировать посты могут только пользователи прошедшие не сложную регистрацию
    Показать сообщения:    

    По законам военного времени через торрент
    Скачать бесплатно По законам военного времени
    По законам военного времени скачать торрент
    По законам военного времени смотреть онлайн
    Cкачать фильм По законам военного времени бесплатно
    По законам военного времени скачать торрент в хорошем качестве
    По законам военного времени смотреть онлайн бесплатно в хорошем качестве


    Вы не можете начинать темы
    Вы не можете отвечать на сообщения
    Вы не можете редактировать свои сообщения
    Вы не можете удалять свои сообщения
    Вы не можете голосовать в опросах
    Вы не можете прикреплять файлы к сообщениям
    Вы можете скачивать файлы