Ссылка на приватное зеркало всего за 1$. Внимание количество ограничено!!!

OK

1+1

iTunes

мы

OK

1

WEB-DLRip

Джокер

Пифагор

Ведьмак / The Witcher сериал

iTunes

ПШазам

ОК

Оно 2

iTunes

30
pack

Вам бонус

ВАЖНО

!!Акция!!

Alien_RageХит недели

RePack

Resident Evil 21

ИГРА 18+

pack

RePack

jed

RePack

fifa19

RePack

Assassins Creed: Odyssey

RePack

NEED FOR SPEED™ PAYBACK

4 сезон

9 сезон

Бесстыжие 9 сезон

Все сериалы

все сериалы на PB.wtf

RePack

FAR CRY 5
  

Побег хулиганов. Русское дело / Hooligan Escape The Russian Job (Николас Винтер) [2018, Криминал, триллер, WEB-DL 720p] MVO ["Синема УС"] pb.wtf

Побег хулиганов. Русское дело через торрент pb.wtf

Размер: 2.79 GB | Добавлен: 1 год 8 мес. назад | Торрент скачан:109 раз
Скачать  

09-05-2018 17:27 Побег хулиганов. Русское дело Скачать торрент  

Побег хулиганов. Русское дело / Hooligan Escape The Russian JobГод выпуска: 2018
Страна: Великобритания
Жанр: Криминал, триллер
Продолжительность: 01:21:41
Перевод: Любительский (многоголосый) | "Синема УС"
Субтитры: английские

Режиссер: Николас Винтер

rating

В ролях:

Али Бастиан, Джеймс Тратас, Чарли Уэрнэм, Бен Фриман, Шерил Бернистон, Гай Фолкнер, Денис Хорошко, Райан Уинсли, Майкл Элкин, Тарын Бишоп

Описание:

Пятеро англичан были арестованы после неприятностей с русскими футбольными хулиганами. Их усыпили газом и похитили из тюрьмы. Они очнулись и поняли, что оказались на заброшенном складе без шансов на побег. Кто-то жаждет мести и не остановится ни перед чем, чтобы добиться её.

Качество: WEB-DL 720p
Формат: MKV

Видео: h.264, 4 498 kb/s, 1280x544
Аудио#1: AC3, 2 ch, 384 Кбит/с
скриншот  скриншот  скриншот  

Общее
Уникальный идентификатор : 234510481935648993232061703681860531513 (0xB06D13710463DD8AA3CCB62153E17539)
Полное имя : F:\Hooligan.Escape.The.Russian.Job.2018.P.WEB-DL.72Op_KOSHARA.mkv
Формат : Matroska
Версия формата : Version 2
Размер файла : 2,79 Гбайт
Продолжительность : 1 ч. 21 м.
Режим общего битрейта : Переменный
Общий поток : 4884 Кбит/сек
Дата кодирования : UTC 2018-05-09 14:45:11
Программа кодирования : mkvmerge v8.3.0 ('Over the Horizon') 64bit
Библиотека кодирования : libebml v1.3.1 + libmatroska v1.4.2

Видео
Идентификатор : 1
Формат : AVC
Формат/Информация : Advanced Video Codec
Профиль формата : High@L4.1
Параметр CABAC формата : Да
Параметр RefFrames формата : 4 кадра
Идентификатор кодека : V_MPEG4/ISO/AVC
Продолжительность : 1 ч. 21 м.
Вид битрейта : Переменный
Битрейт : 4498 Кбит/сек
Максимальный битрейт : 5000 Кбит/сек
Ширина : 1280 пикселей
Высота : 544 пикселя
Соотношение сторон : 2,35:1
Режим частоты кадров : Постоянный
Частота кадров : 23,976 (24000/1001) кадра/сек
Стандарт вещания : Component
Цветовое пространство : YUV
Субдискретизация насыщенности : 4:2:0
Битовая глубина : 8 бит
Тип развёртки : Прогрессивная
Бит/(Пиксели*Кадры) : 0.264
Размер потока : 2,51 Гбайт (90%)
Default : Да
Forced : Нет
Цветовой диапазон : Limited
Основные цвета : BT.709
Характеристики трансфера : BT.709
Коэффициенты матрицы : BT.709

Аудио
Идентификатор : 2
Формат : AC-3
Формат/Информация : Audio Coding 3
Расширение режима : CM (complete main)
Параметр Endianness формата : Big
Идентификатор кодека : A_AC3
Продолжительность : 1 ч. 21 м.
Вид битрейта : Постоянный
Битрейт : 384 Кбит/сек
Каналы : 2 канала
Расположение каналов : Front: L R
Частота : 48,0 КГц
Частота кадров : 31,250 кадров/сек (1536 spf)
Метод сжатия : С потерями
Размер потока : 224 Мбайт (8%)
Default : Да
Forced : Нет

pb.wtf



Скачать Побег хулиганов. Русское дело через торрент https://b.radikal.ru/b07/1805/89/5f89787abef5.jpg Скачать фильм Побег хулиганов. Русское дело через торрент бесплантно в хорошем качестве Описание: Пятеро англичан были арестованы после неприятностей с русскими футбольными хулиганами. Их усыпили газом и похитили из тюрьмы. Они ... 6.4 10 5
Торрент: Зарегистрирован [2018-05-09 17:27] · скачан: 109 раз
Статус: T временная
Размер: 2.79 GB
Как cкачать? Как скачать Побег хулиганов. Русское дело через торрент | qTorrent

% Раздел Тема Автор DL S | L
T Фильмы (мультфильмы) cо спонсором показа (Новинки AVI/MKV) [ 1.36 GB ] Побег хулиганов. Русское дело / Hooligan Escape The Russian Job [2018 WEB-DLRip] MVO ["Синема УС"] bober100 Скачать
1 | 0

28-11-2019 20:33  

Отключить всю рекламу на сайте

09-05-2018 21:33 Побег хулиганов. Русское дело Скачать торрент  

Пятеро англичан были арестованы после неприятностей с русскими футбольными хулиганами? Че серьезно? только прочел первое предложение сценария и сразу прошло желание смотретьpb.wtf



10-05-2018 01:06 Побег хулиганов. Русское дело Скачать торрент  

Опьять эти рюские, чиорт побьери
Что это за чудовищный высер? Русофобия у брытанцев принимает все более идиотскую формуpb.wtf



10-05-2018 07:48 Побег хулиганов. Русское дело Скачать торрент  

"Их усыпили газом..."

Где-то, я уже это слышал. )))pb.wtf



10-05-2018 08:06 Побег хулиганов. Русское дело Скачать торрент  

похоже бедные англичане случайно перешли дорогу русской мафии (обесчестили дочку главаря/украли 100500 кг русского героина/обозвали филиппа киркоровым?)

pb.wtf



10-05-2018 14:42 Побег хулиганов. Русское дело Скачать торрент  

снобы впали в маразм?)))))pb.wtf



10-05-2018 16:46 Побег хулиганов. Русское дело Скачать торрент  

да смешно. качну. я должен это видеть )pb.wtf



    Дорогой пользователь! Огромная просьба, поблагодарите релизера, оцените раздачу и оставьте свои комментарий, если Вы скачали Побег хулиганов. Русское дело через торрент бесплатно! Внесите свою лепту в развитие PiratBit!
    Комментировать посты могут только пользователи прошедшие не сложную регистрацию
    Показать сообщения:    

    Побег хулиганов. Русское дело через торрент
    Скачать бесплатно Побег хулиганов. Русское дело
    Побег хулиганов. Русское дело скачать торрент
    Побег хулиганов. Русское дело смотреть онлайн
    Cкачать фильм Побег хулиганов. Русское дело бесплатно
    Побег хулиганов. Русское дело скачать торрент в хорошем качестве
    Побег хулиганов. Русское дело смотреть онлайн бесплатно в хорошем качестве


    Вы не можете начинать темы
    Вы не можете отвечать на сообщения
    Вы не можете редактировать свои сообщения
    Вы не можете удалять свои сообщения
    Вы не можете голосовать в опросах
    Вы не можете прикреплять файлы к сообщениям
    Вы можете скачивать файлы