Ссылка на приватное зеркало нашего сайта всего за 1$. Внимание количество ограничено!!!

2 сезон

iTunes

1 сезон

1

iTunes

iTunes

iTunes

1 сезон

RePack

30

ИГРА 18+

pack

ВАЖНО

!!Акция!!

Alien_RageХит недели

RePack

MK11
pack

Забери бонус

RePack

jed

!!Акция!!

Alien_Rage

RePack

fifa19

RePack

Assassins Creed: Odyssey

RePack

NEED FOR SPEED™ PAYBACK

4 сезон

9 сезон

Бесстыжие 9 сезон

Все сериалы

все сериалы на PB.wtf

RePack

FAR CRY 5
  

Один в поле воин / Серии: 1-4 из 4 (Виталий Ващенко) [2018, Военный, драма, WEB-DLRip] pb.wtf

Один в поле воин через торрент pb.wtf

Размер: 2.49 GB | Добавлен: 2 года 5 мес. назад | Торрент скачан:177 раз
Скачать  

09-05-2018 17:39 Один в поле воин Скачать торрент  

Один в поле воин
Год выпуска: 2018
Страна: Украина
Жанр: Военный, драма
Продолжительность: ~ 00:50:00
Перевод: Не требуется
Субтитры: отсутствуют

Режиссер: Виталий Ващенко



В ролях:

Александр Соколовский, Александра Эпштейн, Руслан Сасин, Анатолий Кот, Андрей Мостренко, Владимир Гладкий, Дарья Плахтий, Вероника Шостак, Константин Октябрьский

Описание:

Немецкие войска подступают и теперь перед ними стоит военный госпиталь. Они не собираются оставлять в живых тех, кто там находится и готовятся к нападению. В госпитале лежат десятки воинов, которые имеют серьезные раны, либо совсем лишились своих конечностей. Поэтому большинство не сможет покинуть опасную зону. Чтобы не оставлять людей на верную смерть капитан Переверзев принимает решение готовиться к обороне. Кроме подготовки оружия и территории, мужчина старается подбодрить солдатов, чтобы они верили в победу. Однако Переверзев понимает, что ему стоит рассчитывать только на свои силы, ведь раненые солдаты не смогут достойно противостоять врагу. Капитан готов в одиночку вести войну, чтобы сохранить жизни беспомощных людей.

Качество: WEB-DLRip
Формат: AVI

Видео: XviD, ~ 1550 Кбит/с, 720x400
Аудио: AC3, 2 ch, 192 Кбит/с


скриншот  скриншот  скриншот  

Общее
Полное имя : F:\Один в поле воин. (2018).WEB-DLRip.Files-x\1.Один в поле воин. (2018).WEB-DLRip.Files-x.avi
Формат : AVI
Формат/Информация : Audio Video Interleave
Размер файла : 647 Мбайт
Продолжительность : 51 м. 38 с.
Общий поток : 1751 Кбит/сек
Программа кодирования : VirtualDubMod 1.5.10.3 | www.virtualdub-fr.org || (build 2550/release)
Библиотека кодирования : VirtualDubMod build 2550/release

Видео
Идентификатор : 0
Формат : MPEG-4 Visual
Профиль формата : Advanced Simple@L5
Параметр BVOP формата : 1
Параметр QPel формата : Нет
Параметр GMC формата : Без точки перехода
Параметр матрицы формата : Выборочная
Идентификатор кодека : XVID
Идентификатор кодека/Подсказка : XviD
Продолжительность : 51 м. 38 с.
Битрейт : 1549 Кбит/сек
Ширина : 720 пикселей
Высота : 400 пикселей
Соотношение сторон : 16:9
Частота кадров : 25,000 кадров/сек
Цветовое пространство : YUV
Субдискретизация насыщенности : 4:2:0
Битовая глубина : 8 бит
Тип развёртки : Прогрессивная
Метод сжатия : С потерями
Бит/(Пиксели*Кадры) : 0.215
Размер потока : 572 Мбайт (88%)
Библиотека кодирования : XviD 73

Аудио
Идентификатор : 1
Формат : AC-3
Формат/Информация : Audio Coding 3
Расширение режима : CM (complete main)
Параметр Endianness формата : Big
Идентификатор кодека : 2000
Продолжительность : 51 м. 38 с.
Вид битрейта : Постоянный
Битрейт : 192 Кбит/сек
Каналы : 2 канала
Расположение каналов : Front: L R
Частота : 48,0 КГц
Частота кадров : 31,250 кадров/сек (1536 spf)
Метод сжатия : С потерями
Размер потока : 70,9 Мбайт (11%)
Выравнивание : Разделение по промежуткам
Продолжительность промежутка : 40 мс. (1,00 видеокадр)
Время предзагрузки промежутка : 500 мс.

pb.wtf



Скачать Один в поле воин через торрент http://pic1.kartinco.top/images/11/hrz3g.jpg Скачать фильм Один в поле воин через торрент бесплантно в хорошем качестве Описание: Немецкие войска подступают и теперь перед ними стоит военный госпиталь. Они не собираются оставлять в живых тех, кто там ... 9.9 10 7
Торрент: Зарегистрирован [2018-05-09 17:39] · скачан: 177 раз
Статус: √ проверено
Размер: 2.49 GB
Как cкачать? Как скачать Один в поле воин через торрент | qTorrent

% Раздел Тема Автор DL S | L
Наши сериалы [ 9.17 GB ] Один в поле воин / Серии: 1-4 из 4 [2018 военный HDTV 1080p] [Русский] .R.G.Generalfilm White Smoke Скачать
1 | 0
Наши сериалы [ 2.3 GB ] Один в поле воин / Серии: 1-4 из 4 [2018 военный SATRip-AVC] aleksan55 Скачать
1 | 0
Наши сериалы [ 8.2 GB ] Один в поле воин / Серии: 1-4 из 4 [2018 Военный WEB-DL 1080p] bober100 Скачать
1 | 0
Наши сериалы [ 2.37 GB ] Один в поле воин / Серии: 1-4 из 4 [2018 Военный SATRip] bober100 Скачать
1 | 0

28-11-2019 20:33  

Отключить всю рекламу на сайте

    Дорогой пользователь! Огромная просьба, поблагодарите релизера, оцените раздачу и оставьте свои комментарий, если Вы скачали Один в поле воин через торрент бесплатно! Внесите свою лепту в развитие PiratBit!
    Комментировать посты могут только пользователи прошедшие не сложную регистрацию
    Показать сообщения:    

    Один в поле воин через торрент
    Скачать бесплатно Один в поле воин
    Один в поле воин скачать торрент
    Один в поле воин смотреть онлайн
    Cкачать фильм Один в поле воин бесплатно
    Один в поле воин скачать торрент в хорошем качестве
    Один в поле воин смотреть онлайн бесплатно в хорошем качестве


    Вы не можете начинать темы
    Вы не можете отвечать на сообщения
    Вы не можете редактировать свои сообщения
    Вы не можете удалять свои сообщения
    Вы не можете голосовать в опросах
    Вы не можете прикреплять файлы к сообщениям
    Вы можете скачивать файлы