Ссылка на приватное зеркало нашего сайта всего за 1$. Внимание количество ограничено!!!

2 сезон

iTunes

1 сезон

1

2 сезон

2 сезон

iTunes

1 сезон

RePack

30

Ultimate

ВАЖНО

ИГРА 18+

pack

RePack

MK11
pack

Забери бонус

RePack

jed

!!Акция!!

Alien_Rage

RePack

fifa19

RePack

Assassins Creed: Odyssey

RePack

NEED FOR SPEED™ PAYBACK

4 сезон

9 сезон

Бесстыжие 9 сезон

Все сериалы

все сериалы на PB.wtf

RePack

FAR CRY 5
  

Жизнь / Vida / Сезон: 1 / Серии: 1-6 из 6 (Таня Сарачо) [2018, драма, WEB-DL 720p] MVO [Jaskier] pb.wtf

Жизнь через торрент pb.wtf

Размер: 5.28 GB | Добавлен: 2 года 5 мес. назад | Торрент скачан:9 раз
Скачать  

10-05-2018 02:05 Жизнь Скачать торрент  

Жизнь / VidaГод выпуска: 2018
Страна: США
Жанр: драма
Продолжительность: ~ 00:30:00
Перевод: Профессиональный (многоголосый) | Jaskier
Субтитры: отсутствуют

Режиссер: Таня Сарачо

rating

В ролях: Сер Анзоатеги, Мелисса Баррера, Мария-Елена Лаас

Описание: Эмма и Лин - главные героини этого сериала. Они живут в Соединенных Штатах Америки, но родом из Мексики. Небольшой район города Ангелов Истсайд стал для них родным. Девушки все время проводят в этих окрестностях, пытаясь наладить личную жизнь и профессиональные дела. Неожиданные драматические события, связанные с их прошлым и семьей, заставляют главных героинь иначе взглянуть на реальность. Как оказалось, их мать хранит множество тайн, о которых сестрам лучше было бы не знать. То, что героини узнают о своей семье, навсегда меняет их видение происходящего. Мир уже никогда не будет прежним, а жизнь избрала новое течение.

Качество: WEB-DL 720p
Формат: MKV

Видео: X264, ~ 2300 kbps, 1280x720 (16:9), 23.976 fps
Аудио#1: AC3, 48,0 КГц, 6 ch, 384 kbps - Rus
Аудио#2: AC3, 48,0 КГц, 6 ch, 384 kbps - Eng


скриншот   скриншот   скриншот  

Общее
Уникальный идентификатор : 231585771920114234077148820959925938871 (0xAE39CC1AC575D925BDA2B942ECD8AAB7)
Полное имя : F:\Vida. Сезон 1. (WEB-DL l 720p l JASKiER)\Vida.S01E01.720p.Jaskier.mkv
Формат : Matroska
Версия формата : Version 2
Размер файла : 880 Мбайт
Продолжительность : 35 м. 43 с.
Режим общего битрейта : Переменный
Общий поток : 3444 Кбит/сек
Дата кодирования : UTC 2018-05-09 20:20:28
Программа кодирования : mkvmerge v5.8.0 ('No Sleep / Pillow') built on Sep 2 2012 15:37:04
Библиотека кодирования : libebml v1.2.3 + libmatroska v1.3.0

Видео
Идентификатор : 1
Формат : AVC
Формат/Информация : Advanced Video Codec
Профиль формата : High@L3.1
Параметр CABAC формата : Да
Параметр RefFrames формата : 5 кадров
Идентификатор кодека : V_MPEG4/ISO/AVC
Продолжительность : 35 м. 43 с.
Вид битрейта : Переменный
Битрейт : 2608 Кбит/сек
Максимальный битрейт : 4500 Кбит/сек
Ширина : 1280 пикселей
Высота : 720 пикселей
Соотношение сторон : 16:9
Режим частоты кадров : Постоянный
Частота кадров : 23,976 (24000/1001) кадра/сек
Цветовое пространство : YUV
Субдискретизация насыщенности : 4:2:0
Битовая глубина : 8 бит
Тип развёртки : Прогрессивная
Бит/(Пиксели*Кадры) : 0.118
Размер потока : 666 Мбайт (76%)
Default : Да
Forced : Нет
Цветовой диапазон : Limited
Основные цвета : BT.709
Характеристики трансфера : BT.709
Коэффициенты матрицы : BT.709

Аудио #1
Идентификатор : 2
Формат : AC-3
Формат/Информация : Audio Coding 3
Расширение режима : CM (complete main)
Параметр Endianness формата : Big
Идентификатор кодека : A_AC3
Продолжительность : 35 м. 43 с.
Вид битрейта : Постоянный
Битрейт : 384 Кбит/сек
Каналы : 6 каналов
Расположение каналов : Front: L C R, Side: L R, LFE
Частота : 48,0 КГц
Частота кадров : 31,250 кадров/сек (1536 spf)
Метод сжатия : С потерями
Размер потока : 98,1 Мбайт (11%)
Язык : Russian
Default : Да
Forced : Нет

Аудио #2
Идентификатор : 3
Формат : AC-3
Формат/Информация : Audio Coding 3
Расширение режима : CM (complete main)
Параметр Endianness формата : Big
Идентификатор кодека : A_AC3
Продолжительность : 35 м. 43 с.
Вид битрейта : Постоянный
Битрейт : 384 Кбит/сек
Каналы : 6 каналов
Расположение каналов : Front: L C R, Side: L R, LFE
Частота : 48,0 КГц
Частота кадров : 31,250 кадров/сек (1536 spf)
Метод сжатия : С потерями
Размер потока : 98,1 Мбайт (11%)
Язык : English
Default : Нет
Forced : Нет

Внимание! Раздача ведётся путём добавления новых серий; при каждом добавлении создаётся новый торрент. Чтобы начать докачку новой серии, пользователям необходимо сделать следующее:
(1) остановить скачивание,
(2) удалить старый торрент у себя из клиента (старые серии удалять не надо),
(3) скачать новый торрент и запустить его у себя в клиенте вместо старого, при этом указать клиенту путь в старую папку куда и должно происходить скачивание новых серий.
Ваш клиент при этом должен произвести хеширование (проверку) старой папки (если не производит сам - помогите ему сделать это), и будет докачивать только те серии которых у вас ещё нет. Старые серии при этом не удаляются, а продолжают раздаваться!
Eсли вы уже удалили старые серии, то предотвратить повторную закачку старых серий можно, отжав галочку в соответствующих местах при запуске нового торрента. По возможности, желательно не удалять старые серии как можно дольше чтобы релизёр не столько продолжал раздавать старые серии, а смог сконцентрироваться на новых.
pb.wtf



Скачать Жизнь через торрент http://i104.fastpic.ru/big/2018/0510/5a/7f3c368b6375c2b4d6414c5fe3e00b5a.png Скачать фильм Жизнь через торрент бесплантно в хорошем качестве Описание: Эмма и Лин - главные героини этого сериала. Они живут в Соединенных Штатах Америки, но родом из Мексики. Небольшой район города ... 10 10 4
Торрент: Зарегистрирован [2018-06-20 02:20] · скачан: 9 раз
Статус: √ проверено
Размер: 5.28 GB
Как cкачать? Как скачать Жизнь через торрент | qTorrent

% Раздел Тема Автор DL S | L
Зарубежные сериалы [ 2.05 GB ] Жизнь / Vida / Сезон: 1 / Серии: 1-6 из 6 [2018 WEB-DLRip] MVO [NewStudio] bober100 Скачать
1 | 0
Зарубежные сериалы [ 2.42 GB ] Жизнь / Vida / Сезон: 1 / Серии: 1-6 из 6 [2018 WEB-DLRip] MVO [Jaskier] bober100 Скачать
1 | 0

28-11-2019 20:33  

Отключить всю рекламу на сайте

    Дорогой пользователь! Огромная просьба, поблагодарите релизера, оцените раздачу и оставьте свои комментарий, если Вы скачали Жизнь через торрент бесплатно! Внесите свою лепту в развитие PiratBit!
    Комментировать посты могут только пользователи прошедшие не сложную регистрацию
    Показать сообщения:    

    Жизнь через торрент
    Скачать бесплатно Жизнь
    Жизнь скачать торрент
    Жизнь смотреть онлайн
    Cкачать фильм Жизнь бесплатно
    Жизнь скачать торрент в хорошем качестве
    Жизнь смотреть онлайн бесплатно в хорошем качестве


    Вы не можете начинать темы
    Вы не можете отвечать на сообщения
    Вы не можете редактировать свои сообщения
    Вы не можете удалять свои сообщения
    Вы не можете голосовать в опросах
    Вы не можете прикреплять файлы к сообщениям
    Вы можете скачивать файлы