Ссылка на приватное зеркало нашего сайта всего за 1$. Внимание количество ограничено!!!

2 сезон

iTunes

1 сезон

1

2 сезон

2 сезон

iTunes

1 сезон

RePack

30

Ultimate

ВАЖНО

ИГРА 18+

pack

RePack

MK11
pack

Забери бонус

RePack

jed

!!Акция!!

Alien_Rage

RePack

fifa19

RePack

Assassins Creed: Odyssey

RePack

NEED FOR SPEED™ PAYBACK

4 сезон

9 сезон

Бесстыжие 9 сезон

Все сериалы

все сериалы на PB.wtf

RePack

FAR CRY 5
  

Безопасность / Safe / Сезон: 1 / Серии: 1-8 из 8 (Джулия Форд, Дэниэл О Хара, Дэниэл Неттхейм) [2018, драма, WEBRip] DVO [SunshineStudio] pb.wtf

Безопасность через торрент pb.wtf

Размер: 4.28 GB | Добавлен: 2 года 6 мес. назад | Торрент скачан:12 раз
Скачать  

11-05-2018 09:28 Безопасность Скачать торрент  

Безопасность / SafeГод выпуска: 2018
Страна: Великобритания
Жанр: драма
Продолжительность: ~ 00:42:00
Перевод: Любительский (двухголосый) |
Субтитры: отсутствуют

Режиссер: Джулия Форд, Дэниэл О Хара, Дэниэл Неттхейм

rating

В ролях:

Аманда Аббингтон, Ханна Артертон, Луис Гриторекс, Майкл С. Холл, Raj Paul, Чук Сибтайн, Хиро Файнс-Тиффин, Фредди Торп, Тайлер Конти, Кэти Кармайкл

Описание:

Сюжет восьмисерийного триллера вращается вокруг британца Тома (Холл) — детского хирурга и вдовствующего отца двоих дочерей, Дженни и Кэрри. Однажды Дженни, отношения которой с папой оставляют желать лучшего, отправляется на вечеринку и бесследно пропадает. Это событие становится началом сущего кошмара не только для семьи Тома, но и для всего городка, обитатели которого до сей поры жили в полной уверенности, что у них тут вполне безопасно. Выяснится, что страшные тайны имеются не только у подростков, но и у благопристойных взрослых горожан, и еще надо выяснить, чьи секреты страшнее.

Качество: WEBRip
Формат: AVI

Видео: XviD, ~ 1500 Кбит/с, 720x304
Аудио: AC3, 2 ch, 192 Кбит/с
скриншот  скриншот  скриншот  

Общее
Полное имя : E:\Safe.S01.400p.SunshineStudio\Safe.S01E01.400p.SunshineStudio.avi
Формат : AVI
Формат/Информация : Audio Video Interleave
Размер файла : 514 Мбайт
Продолжительность : 42 м. 12 с.
Общий поток : 1702 Кбит/сек
Программа кодирования : VirtualDubMod 1.5.10.3 | www.virtualdub-fr.org || (build 2550/release)
Библиотека кодирования : VirtualDubMod build 2550/release

Видео
Идентификатор : 0
Формат : MPEG-4 Visual
Профиль формата : Advanced Simple@L5
Настройки формата : BVOP1
Параметр BVOP формата : 1
Параметр QPel формата : Нет
Параметр GMC формата : Без точки перехода
Параметр матрицы формата : Default (H.263)
Идентификатор кодека : XVID
Идентификатор кодека/Подсказка : XviD
Продолжительность : 42 м. 12 с.
Битрейт : 1500 Кбит/сек
Ширина : 720 пикселей
Высота : 304 пикселя
Соотношение сторон : 2,35:1
Частота кадров : 25,000 кадров/сек
Цветовое пространство : YUV
Субдискретизация насыщенности : 4:2:0
Битовая глубина : 8 бит
Тип развёртки : Прогрессивная
Метод сжатия : С потерями
Бит/(Пиксели*Кадры) : 0.274
Размер потока : 453 Мбайт (88%)
Библиотека кодирования : XviD 1.2.1 (UTC 2008-12-04)

Аудио
Идентификатор : 1
Формат : AC-3
Формат/Информация : Audio Coding 3
Идентификатор кодека : 2000
Продолжительность : 42 м. 12 с.
Вид битрейта : Постоянный
Битрейт : 192 Кбит/сек
Каналы : 2 канала
Расположение каналов : Front: L R
Частота : 48,0 КГц
Частота кадров : 31,250 кадров/сек (1536 SPF)
Битовая глубина : 16 бит
Метод сжатия : С потерями
Размер потока : 58,0 Мбайт (11%)
Выравнивание : Разделение по промежуткам
Продолжительность промежутка : 40 мс. (1,00 видеокадр)
Время предзагрузки промежутка : 500 мс.
ServiceKind/String : Complete Main

pb.wtf



Скачать Безопасность через торрент http://i105.fastpic.ru/big/2018/0510/28/8ddde548bfe924534f3dbf6904d95728.jpg Скачать фильм Безопасность через торрент бесплантно в хорошем качестве Описание: Сюжет восьмисерийного триллера вращается вокруг британца Тома (Холл) — детского хирурга и вдовствующего отца двоих дочерей, ... 10 10 2
Торрент: Зарегистрирован [2018-05-11 09:28] · скачан: 12 раз
Статус: √ проверено
Размер: 4.28 GB
Как cкачать? Как скачать Безопасность через торрент | qTorrent

% Раздел Тема Автор DL S | L
Зарубежные сериалы [ 11.15 GB ] Безопасность / Safe / Сезон: 1 / Серии: 1-8 из 8 [2018 WEBRip 1080p] MVO [Good People] bober100 Скачать
1 | 0
Зарубежные сериалы [ 3.91 GB ] Безопасность / Safe / Сезон: 1 / Серии: 1-8 из 8 [2018 WEBRip] MVO [Good People] bober100 Скачать
1 | 0
Зарубежные сериалы [ 7.16 GB ] Безопасность / Safe / Сезон: 1 / Серии: 1-8 из 8 [2018 WEBRip 720p] MVO [LostFilm] bober100 Скачать
1 | 0
Зарубежные сериалы [ 11.14 GB ] Безопасность / Safe / Сезон: 1 / Серии: 1-8 из 8 [2018 WEBRip 1080p] [DVO] killermax2013 Скачать
1 | 0
Зарубежные сериалы [ 7.18 GB ] Безопасность / Safe / Сезон: 1 / Серии: 1-8 из 8 [2018 WEBRip 720p] MVO [Jaskier] bober100 Скачать
1 | 0
Зарубежные сериалы [ 3.92 GB ] Безопасность / Safe / Сезон: 1 / Серии: 1-8 из 8 [2018 WEBRip] MVO [Jaskier] bober100 Скачать
1 | 0
Зарубежные сериалы [ 11.14 GB ] Безопасность / Safe / Сезон: 1 / Серии: 1-8 из 8 [2018 WEBRip 1080p] MVO [Jaskier] bober100 Скачать
1 | 0

28-11-2019 20:33  

Отключить всю рекламу на сайте

    Дорогой пользователь! Огромная просьба, поблагодарите релизера, оцените раздачу и оставьте свои комментарий, если Вы скачали Безопасность через торрент бесплатно! Внесите свою лепту в развитие PiratBit!
    Комментировать посты могут только пользователи прошедшие не сложную регистрацию
    Показать сообщения:    

    Безопасность через торрент
    Скачать бесплатно Безопасность
    Безопасность скачать торрент
    Безопасность смотреть онлайн
    Cкачать фильм Безопасность бесплатно
    Безопасность скачать торрент в хорошем качестве
    Безопасность смотреть онлайн бесплатно в хорошем качестве


    Вы не можете начинать темы
    Вы не можете отвечать на сообщения
    Вы не можете редактировать свои сообщения
    Вы не можете удалять свои сообщения
    Вы не можете голосовать в опросах
    Вы не можете прикреплять файлы к сообщениям
    Вы можете скачивать файлы