Ссылка на приватное зеркало нашего сайта всего за 1$. Внимание количество ограничено!!!

2 сезон

iTunes

1 сезон

1

2 сезон

2 сезон

iTunes

1 сезон

RePack

30

Ultimate

ВАЖНО

ИГРА 18+

pack

RePack

MK11
pack

Забери бонус

RePack

jed

!!Акция!!

Alien_Rage

RePack

fifa19

RePack

Assassins Creed: Odyssey

RePack

NEED FOR SPEED™ PAYBACK

4 сезон

9 сезон

Бесстыжие 9 сезон

Все сериалы

все сериалы на PB.wtf

RePack

FAR CRY 5
  

Эш против Зловещих мертвецов / Ash vs Evil Dead / Сезон: 3 / Серии: 1-10 из 10 (Марк Бисли, Рик Джейкобсон, Тони Тилс) [2018, ужасы, фэнтези, боевик, комедия, WEB-DL 720p] MVO [NewStudio] pb.wtf

Эш против Зловещих мертвецов через торрент pb.wtf

Размер: 8.42 GB | Добавлен: 2 года 6 мес. назад | Торрент скачан:57 раз
Скачать  

11-05-2018 10:32 Эш против Зловещих мертвецов Скачать торрент  

Эш против Зловещих мертвецов / Ash vs Evil Dead
Год выпуска: 2018
Страна: США
Жанр: ужасы, фэнтези, боевик, комедия
Продолжительность: ~ 00:28:00
Перевод: Профессиональный многоголосый |
Субтитры: отсутствуют

Режиссер: Марк Бисли, Рик Джейкобсон, Тони Тилс

rating

В ролях:

Брюс Кэмпбелл, Рэй Сантьяго, Дэна ДеЛоренцо, Люси Лоулесс, Джилл Мари Джонс, Ариэль О Нилл, Тед Рэйми, Ли Мэйджорс, Мишель Херд, Джоэль Тобек

Описание:

Последние тридцать лет Эш старательно избегал всего, что связано с воспоминаниями о зловещих мертвецах, но когда очередное нашествие дедайтов грозит уничтожить всё население планеты, Эш становится единственным шансом человечества на спасение.

Качество: WEB-DL 1080p
Формат: MKV

Видео: MPEG-4 AVC, ~ 3 300 Кбит/с, 1280x720
Аудио#1: Русский (AC3, 6 ch, 384 Кбит/с)
Аудио#2: английский (AC3, 6 ch, 640 Кбит/с)


скриншот  скриншот  скриншот  

Общее
Уникальный идентификатор : 235414497478255802422144258398108170272 (0xB11B2ED95356D2D1A6ABC857DE32B820)
Полное имя : E:\Ash.vs.Evil.Dead (Season 03) NewStudio 720\Ash.vs.Evil.Dead.s03e01.WEBDL.720p.NewStudio.TV.BLACKTIR.mkv
Формат : Matroska
Версия формата : Version 4 / Version 2
Размер файла : 867 Мбайт
Продолжительность : 28 м. 19 с.
Режим общего битрейта : Переменный
Общий поток : 4277 Кбит/сек
Дата кодирования : UTC 2018-03-02 00:32:18
Программа кодирования : mkvmerge v18.0.0 ('Apricity') 64-bit
Библиотека кодирования : libebml v1.3.5 + libmatroska v1.4.8

Видео
Идентификатор : 1
Формат : AVC
Формат/Информация : Advanced Video Codec
Профиль формата : High@L3.1
Настройки формата : CABAC / 5 Ref Frames
Параметр CABAC формата : Да
Параметр RefFrames формата : 5 кадров
Идентификатор кодека : V_MPEG4/ISO/AVC
Продолжительность : 28 м. 19 с.
Вид битрейта : Переменный
Битрейт : 3252 Кбит/сек
Максимальный битрейт : 4500 Кбит/сек
Ширина : 1280 пикселей
Высота : 720 пикселей
Соотношение сторон : 16:9
Режим частоты кадров : Постоянный
Частота кадров : 23,976 (24000/1001) кадра/сек
Цветовое пространство : YUV
Субдискретизация насыщенности : 4:2:0
Битовая глубина : 8 бит
Тип развёртки : Прогрессивная
Бит/(Пиксели*Кадры) : 0.147
Размер потока : 659 Мбайт (76%)
Язык : English
Default : Да
Forced : Нет
Цветовой диапазон : Limited
Основные цвета : BT.709
Характеристики трансфера : BT.709
Коэффициенты матрицы : BT.709

Аудио #1
Идентификатор : 2
Формат : AC-3
Формат/Информация : Audio Coding 3
Идентификатор кодека : A_AC3
Продолжительность : 28 м. 19 с.
Вид битрейта : Постоянный
Битрейт : 384 Кбит/сек
Каналы : 6 каналов
Расположение каналов : Front: L C R, Side: L R, LFE
Частота : 48,0 КГц
Частота кадров : 31,250 кадров/сек (1536 SPF)
Битовая глубина : 16 бит
Метод сжатия : С потерями
Размер потока : 77,8 Мбайт (9%)
Заголовок : NewStudio.TV
Язык : Russian
ServiceKind/String : Complete Main
Default : Да
Forced : Нет

Аудио #2
Идентификатор : 3
Формат : E-AC-3
Формат/Информация : Enhanced Audio Coding 3
Идентификатор кодека : A_EAC3
Продолжительность : 28 м. 19 с.
Вид битрейта : Постоянный
Битрейт : 640 Кбит/сек
Каналы : 6 каналов
Расположение каналов : Front: L C R, Side: L R, LFE
Частота : 48,0 КГц
Частота кадров : 187,500 кадров/сек (256 SPF)
Метод сжатия : С потерями
Размер потока : 130 Мбайт (15%)
Заголовок : Original
Язык : English
ServiceKind/String : Complete Main
Default : Нет
Forced : Нет

pb.wtf



Скачать Эш против Зловещих мертвецов через торрент http://pic1.kartinco.top/images/11/eyymw.jpg Скачать фильм Эш против Зловещих мертвецов через торрент бесплантно в хорошем качестве Описание: Последние тридцать лет Эш старательно избегал всего, что связано с воспоминаниями о зловещих мертвецах, но когда очередное ... 10 10 4
Торрент: Зарегистрирован [2018-05-11 10:32] · скачан: 57 раз
Статус: √ проверено
Размер: 8.42 GB
Как cкачать? Как скачать Эш против Зловещих мертвецов через торрент | qTorrent

% Раздел Тема Автор DL S | L
Зарубежные сериалы [ 20.65 GB ] Эш против Зловещих мертвецов / Ash vs Evil Dead / Сезон 3 / Серии 1-10 из 10 [2018 WEB-DL 1080p] [MVO] [AlexFilm] killermax2013 Скачать
1 | 0
Зарубежные сериалы [ 5.43 GB ] Эш против Зловещих мертвецов / Ash vs Evil Dead / Сезон 3 / Серии 1-7 из 10 [2018 WEB-DL 720p] [DVO] killermax2013 Скачать
1 | 0
Зарубежные сериалы [ 21.64 GB ] Эш против Зловещих мертвецов / Ash vs Evil Dead / Сезон: 3 / Серии: 1-10 из 10 [2018 WEB-DL 1080p] MVO [NewStudio] bober100 Скачать
1 | 0
Зарубежные сериалы [ 7.75 GB ] Эш против Зловещих мертвецов / Ash vs Evil Dead / Сезон 3 / Серии 1-10 из 10 [2018 WEB-DL 720p] [MVO] [AlexFilm] killermax2013 Скачать
1 | 0
Зарубежные сериалы [ 8.62 GB ] Эш против Зловещих мертвецов / Ash vs Evil Dead / Сезон: 3 / Серии 1-10 из 10 [2018 WEBRip 720p] MVO [BaibaKo] GEKADOL Скачать
1 | 0
Зарубежные сериалы [ 2.83 GB ] Эш против Зловещих мертвецов / Ash vs Evil Dead / Сезон: 3 / Серии: 1-10 из 10 [2018 WEB-DLRip] MVO [NewStudio] bober100 Скачать
1 | 0
Зарубежные сериалы [ 21.18 GB ] Эш против Зловещих мертвецов / Ash vs Evil Dead / Сезон: 3 / Серии: 1-10 из 10 [2018 WEBRip 1080p] AVO [Д.Пучков "ака" Гоблин] bober100 Скачать
1 | 0

28-11-2019 20:33  

Отключить всю рекламу на сайте

    Дорогой пользователь! Огромная просьба, поблагодарите релизера, оцените раздачу и оставьте свои комментарий, если Вы скачали Эш против Зловещих мертвецов через торрент бесплатно! Внесите свою лепту в развитие PiratBit!
    Комментировать посты могут только пользователи прошедшие не сложную регистрацию
    Показать сообщения:    

    Эш против Зловещих мертвецов через торрент
    Скачать бесплатно Эш против Зловещих мертвецов
    Эш против Зловещих мертвецов скачать торрент
    Эш против Зловещих мертвецов смотреть онлайн
    Cкачать фильм Эш против Зловещих мертвецов бесплатно
    Эш против Зловещих мертвецов скачать торрент в хорошем качестве
    Эш против Зловещих мертвецов смотреть онлайн бесплатно в хорошем качестве


    Вы не можете начинать темы
    Вы не можете отвечать на сообщения
    Вы не можете редактировать свои сообщения
    Вы не можете удалять свои сообщения
    Вы не можете голосовать в опросах
    Вы не можете прикреплять файлы к сообщениям
    Вы можете скачивать файлы