Ссылка на приватное зеркало всего за 1$. Внимание количество ограничено!!!

OK

1+1

iTunes

мы

OK

1

WEB-DLRip

Джокер

Пифагор

Ведьмак / The Witcher сериал

Лицензия

ПШазам

ОК

Оно 2

iTunes

30
pack

Вам бонус

ВАЖНО

!!Акция!!

Alien_RageХит недели

RePack

Resident Evil 21

ИГРА 18+

pack

RePack

jed

!!Акция!!

Alien_Rage

RePack

fifa19

RePack

Assassins Creed: Odyssey

RePack

NEED FOR SPEED™ PAYBACK

4 сезон

9 сезон

Бесстыжие 9 сезон

Все сериалы

все сериалы на PB.wtf

RePack

FAR CRY 5
  

Сотня / 100 / The 100 / Сезон: 5 / Серии: 1-13 из 13 (Дин Уайт, Джон Беринг, Милан Чейлов) [2018, Фантастика, WEB-DL 1080p] 2xMVO [AlexFilm, LostFilm] pb.wtf

Сотня через торрент pb.wtf

Размер: 63.12 GB | Добавлен: 10 мес. назад | Торрент скачан:17 раз
Скачать  

11-05-2018 10:37 Сотня Скачать торрент  

Сотня / 100 / The 100
Информация о фильме:

Название: Сотня / 100
Оригинальное название: The 100
Год выпуска: 2018
Страна: США
Жанр: Фантастика
Продолжительность: ~ 00:44:00
Перевод:

Профессиональный многоголосый |
Профессиональный многоголосый | LostFilm

Субтитры: | Английские |

Режиссер: Дин Уайт, Джон Беринг, Милан Чейлов

rating


В ролях:

Элиза Тейлор-Коттер, Мари Авгеропулос, Сачин Сахель, Линдси Морган, Женевьев Бюкнер, Ричард Хэрмон, Джарод Джозеф, Челси Рейст, Крис Браунинг, Джош Ссеттуба

Описание:

События в сериале начинают разворачиваться по прошествии девяносто семи лет после того как всю цивилизацию уничтожила страшная атомная война. Высоко в космосе на орбите Земли летает большой космический корабль, именно здесь находятся те, кто выжил после страшной катастрофы. Они единственные кто пережил этот ужасный катаклизм который устроило человечество. Именно с этого последнего пристанища людей на Землю отправляют космический челнок на котором находятся сто малолетних преступников…

Информация о файле:

Качество: WEB-DL 1080p
Формат: MKV

Видео: 1920x1080, 23.976 fps, MPEG-4 AVC, ~14200 kbps
Аудио#1 Rus: kHz, AC3, 3/2 (L,C,R,l,r) + LFE ch, ~640.00 kbps | AlexFilm
Аудио#2 Rus: kHz, AC3, 3/2 (L,C,R,l,r) + LFE ch, ~640.00 kbps | LostFilm
Аудио#3 Eng: kHz, E-AC3, 3/2 (L,C,R,l,r) + LFE ch, ~640.00 kbps


скриншот  скриншот  скриншот  скриншот  

General
Unique ID : 292320971616744995618615332158682746930 (0xDBEAF8A48E035798A80F5683D870D032)
Format : Matroska
Format version : Version 4 / Version 2
File size : 4.86 GiB
Duration : 42 min 19 s
Overall bit rate mode : Variable
Overall bit rate : 16.4 Mb/s
Movie name : The 100 5x01 (2018) - Release serial_M
Encoded date : UTC 2018-04-28 15:58:51
Writing application : mkvmerge v20.0.0 ('I Am The Sun') 64-bit
Writing library : libebml v1.3.5 + libmatroska v1.4.8

Video
ID : 1
Format : AVC
Format/Info : Advanced Video Codec
Format profile : High@L4
Format settings : CABAC / 4 Ref Frames
Format settings, CABAC : Yes
Format settings, ReFrames : 4 frames
Codec ID : V_MPEG4/ISO/AVC
Duration : 42 min 19 s
Bit rate mode : Variable
Bit rate : 14.5 Mb/s
Maximum bit rate : 15.0 Mb/s
Width : 1 920 pixels
Height : 1 080 pixels
Display aspect ratio : 16:9
Frame rate mode : Constant
Frame rate : 23.976 (24000/1001) FPS
Color space : YUV
Chroma subsampling : 4:2:0
Bit depth : 8 bits
Scan type : Progressive
Bits/(Pixel*Frame) : 0.292
Stream size : 4.29 GiB (88%)
Title : The 100 5x01 (2018) - Release serial_M
Language : English
Default : Yes
Forced : No
Color range : Limited
Color primaries : BT.709
Transfer characteristics : BT.709
Matrix coefficients : BT.709

Audio #1
ID : 2
Format : AC-3
Format/Info : Audio Coding 3
Codec ID : A_AC3
Duration : 42 min 19 s
Bit rate mode : Constant
Bit rate : 640 kb/s
Channel(s) : 6 channels
Channel positions : Front: L C R, Side: L R, LFE
Sampling rate : 48.0 kHz
Frame rate : 31.250 FPS (1536 SPF)
Bit depth : 16 bits
Compression mode : Lossy
Stream size : 194 MiB (4%)
Title : AlexFilm
Language : Russian
Service kind : Complete Main
Default : Yes
Forced : No

Audio #2
ID : 3
Format : AC-3
Format/Info : Audio Coding 3
Codec ID : A_AC3
Duration : 42 min 19 s
Bit rate mode : Constant
Bit rate : 640 kb/s
Channel(s) : 6 channels
Channel positions : Front: L C R, Side: L R, LFE
Sampling rate : 48.0 kHz
Frame rate : 31.250 FPS (1536 SPF)
Bit depth : 16 bits
Compression mode : Lossy
Stream size : 194 MiB (4%)
Title : LostFilm
Language : Russian
Service kind : Complete Main
Default : No
Forced : No

Audio #3
ID : 4
Format : E-AC-3
Format/Info : Enhanced Audio Coding 3
Codec ID : A_EAC3
Duration : 42 min 19 s
Bit rate mode : Constant
Bit rate : 640 kb/s
Channel(s) : 6 channels
Channel positions : Front: L C R, Side: L R, LFE
Sampling rate : 48.0 kHz
Frame rate : 187.500 FPS (256 SPF)
Compression mode : Lossy
Stream size : 194 MiB (4%)
Title : English
Language : English
Service kind : Complete Main
Default : No
Forced : No

Text
ID : 5
Format : UTF-8
Codec ID : S_TEXT/UTF8
Codec ID/Info : UTF-8 Plain Text
Duration : 41 min 35 s
Bit rate : 38 b/s
Count of elements : 460
Stream size : 11.8 KiB (0%)
Title : eng-sub
Language : English
Default : No
Forced : No

Когда раздача ведётся путём добавления новых серий, при каждом добавлении создётся новый торрент. Чтобы начать докачку новой серии, пользователям необходимо сделать следующее:
(1) остановить скачивание,
(2) удалить старый торрент у себя из клиента (старые серии удалять не надо),
(3) скачать новый торрент и запустить его у себя в клиенте вместо старого, при этом указать клиенту путь в старую папку, куда и должно происходить скачивание новых серий.
Ваш клиент при этом должен произвести хеширование (проверку) старой папки (если не производит сам - помогите ему сделать это), и будет докачивать только те серии, которых у вас ещё нет. Старые серии при этом не удаляются, а продолжают раздаваться!
Eсли вы уже удалили старые серии, то предотвратить повторную закачку старых серий можно, отжав галочку в соответсвующих местах при запуске нового торрента. По возможности, желательно не удалять старые серии как можно дольше, чтобы релизёр не столько продолжал раздавать старые серии, а смог сконцентрироваться на новых.
pb.wtf



Скачать Сотня через торрент http://pic1.kartinco.top/images/11/o2arq.jpg Скачать фильм Сотня через торрент бесплантно в хорошем качестве Описание: События в сериале начинают разворачиваться по прошествии девяносто семи лет после того как всю цивилизацию уничтожила страшная ... 10 10 3
Info! Золотая раздача, скачанное не засчитывается.
Торрент: Зарегистрирован [2019-03-11 08:08] · скачан: 17 раз
Статус: √ проверено
Размер: 63.12 GB
Как cкачать? Как скачать Сотня через торрент | qTorrent

% Раздел Тема Автор DL S | L
Зарубежные сериалы [ 17.18 GB ] Сотня / 100 / The 100 / Сезон: 5 / Серии: 1-13 из 13 [2018 HDTVRip 720p] DVO [SunshineStudio] bober100 Скачать
1 | 0
Зарубежные сериалы [ 6.67 GB ] Сотня / 100 / The 100 / Сезон: 5 / Серии: 1-13 из 13 [2018 HDTVRip] DVO [SunshineStudio] bober100 Скачать
2 | 0
Зарубежные сериалы [ 6.35 GB ] Сотня / 100 / The 100 / Сезон: 5 / Серии: 1-13 из 13 [2018 WEBRip] MVO [BaibaKo] bober100 Скачать
2 | 0
Зарубежные сериалы [ 14.23 GB ] Сотня / 100 / The 100 / Сезон: 5 / Серии: 1-13 из 13 [2018 WEB-DL 720p] MVO [AlexFilm] bober100 Скачать
1 | 0
Зарубежные сериалы [ 12.22 GB ] Сотня / 100 / The 100 / Сезон: 5 / Серии: 1-13 из 13 [2018 WEB-DLRip] 2x[MVO] killermax2013 Скачать
1 | 0
Зарубежные сериалы [ 20.78 GB ] Сотня / 100 / The 100 / Сезон: 5 / Серии: 1-13 из 13 [2018 WEB-DL 720p] MVO [BaibaKo] bober100 Скачать
1 | 0
Зарубежные сериалы [ 24.8 GB ] Сотня / 100 / The 100 / Сезон: 5 / Серии: 1-13 из 13 [2018 WEBRip 1080p] MVO [BaibaKo] bober100 Скачать
1 | 0

28-11-2019 20:33  

Отключить всю рекламу на сайте

    Дорогой пользователь! Огромная просьба, поблагодарите релизера, оцените раздачу и оставьте свои комментарий, если Вы скачали Сотня через торрент бесплатно! Внесите свою лепту в развитие PiratBit!
    Комментировать посты могут только пользователи прошедшие не сложную регистрацию
    Показать сообщения:    

    Сотня через торрент
    Скачать бесплатно Сотня
    Сотня скачать торрент
    Сотня смотреть онлайн
    Cкачать фильм Сотня бесплатно
    Сотня скачать торрент в хорошем качестве
    Сотня смотреть онлайн бесплатно в хорошем качестве


    Вы не можете начинать темы
    Вы не можете отвечать на сообщения
    Вы не можете редактировать свои сообщения
    Вы не можете удалять свои сообщения
    Вы не можете голосовать в опросах
    Вы не можете прикреплять файлы к сообщениям
    Вы можете скачивать файлы