Ссылка на приватное зеркало нашего сайта всего за 1$. Внимание количество ограничено!!!

2 сезон

iTunes

1 сезон

1

iTunes

iTunes

iTunes

1 сезон

RePack

30

ИГРА 18+

pack

ВАЖНО

!!Акция!!

Alien_RageХит недели

RePack

MK11
pack

Забери бонус

RePack

jed

!!Акция!!

Alien_Rage

RePack

fifa19

RePack

Assassins Creed: Odyssey

RePack

NEED FOR SPEED™ PAYBACK

4 сезон

9 сезон

Бесстыжие 9 сезон

Все сериалы

все сериалы на PB.wtf

RePack

FAR CRY 5
  

Один в поле воин / Серии: 1-4 из 4 (Виталий Ващенко) [2018 , военный, драма, HDTV 1080p] Не требуется [Русский] .R.G.Generalfilm pb.wtf

Один в поле воин через торрент pb.wtf

Размер: 9.17 GB | Добавлен: 2 года 5 мес. назад | Торрент скачан:202 раза
Скачать  

11-05-2018 11:51 Один в поле воин Скачать торрент  

Один в поле воин


Год выпуска: 2018

Страна: Украина
Жанр: военный, драма
Продолжительность: 00:49:23
Перевод: Не требуется [Русский]
Режиссер: Виталий Ващенко
В ролях:

Александр Соколовский, Александра Эпштейн, Руслан Сасин, Анатолий Кот, Андрей Мостренко, Владимир Гладкий, Дарья Плахтий, Вероника Шостак, Константин Октябрьский
Описание:
В разгар войны группа красноармейцев попадает под трибунал. Их увозят из части, но по дороге солдаты попадают в засаду. В живых остается лишь Иван, осужденный за «самоволку». Парню удается незаметно сбежать и вернуться в свою часть, уже занятую противником. Досконально зная местность, он наносит немцам существенный урон, при этом не выдавая себя. Вскоре фашисты догадываются, что в расположении прячется диверсант. После неравной битвы Ивану удается скрыться, но немцы преследуют солдата, куда бы тот ни отправился. Бесстрашный боец еще не знает, что ему придется вступить в кровавую схватку с элитным отрядом SS, и помочь ему смогут лишь родные стены...

Качество: HDTV 1080p by
Формат: MKV
Видео кодек: AVC
Аудио кодек: AC3
Видео: AVC, 1920x1080 (16:9), 7050 kbps, 25 fps, 0,136 bpp
Аудио: AC3 / 2.0 / 48 kHz / 192 kbps /
General
Unique ID : 243835413384134201834856467296587688593 (0xB770FE0ED598DA14BE66CE9094412A91)
Complete name : E:\запись с тв\Posolstvo 2018.HDTV 1080p.R.G.Generalfilm\Posolstvo.e01-03.2018.HDTV 1080p.by.White Smoke.R.G.Generalfilm.mkv
Format : Matroska
Format version : Version 4 / Version 2
File size : 5.78 GiB
Duration : 1 h 54 min
Overall bit rate mode : Constant
Overall bit rate : 7 208 kb/s
Movie name : Posolstvo.e01-03.2018.HDTV 1080p.by.White Smoke.R.G.Generalfilm.mkv
Encoded date : UTC 2018-05-08 14:37:55
Writing application : mkvmerge v6.8.0 ('Theme for Great Cities') 64bit built on Mar 2 2014 21:34:26
Writing library : libebml v1.3.0 + libmatroska v1.4.1

Video
ID : 1
Format : AVC
Format/Info : Advanced Video Codec
Format profile : High@L4.1
Format settings, CABAC : Yes
Format settings, ReFrames : 3 frames
Codec ID : V_MPEG4/ISO/AVC
Duration : 1 h 54 min
Формат: MKV
Видео кодек: AVC
Аудио кодек: AC3
Видео: AVC, 1920x1080 (16:9), 7050 kbps, 25 fps, 0,136 bpp
Аудио: AC3 / 2.0 / 48 kHz / 192 kbps /
General
Unique ID : 248825898703513021073167516720591808164 (0xBB321FFB195583F9B67657E7187426A4)
Complete name : E:\запись с тв\Odin v pole voin 2018.HDTV 1080p.R.G.Generalfilm\Odin v pole voin.e01.2018.HDTV 1080p.by.White Smoke.R.G.Generalfilm.mkv
Format : Matroska
Format version : Version 4 / Version 2
File size : 2.49 GiB
Duration : 49 min
Overall bit rate mode : Constant
Overall bit rate : 7 219 kb/s
Movie name : Odin v pole voin.e01.2018.HDTV 1080p.by.White Smoke.R.G.Generalfilm.mkv
Encoded date : UTC 2018-05-10 18:45:03
Writing application : mkvmerge v6.8.0 ('Theme for Great Cities') 64bit built on Mar 2 2014 21:34:26
Writing library : libebml v1.3.0 + libmatroska v1.4.1

Video
ID : 1
Format : AVC
Format/Info : Advanced Video Codec
Format profile : High@L4.1
Format settings, CABAC : Yes
Format settings, ReFrames : 3 frames
Codec ID : V_MPEG4/ISO/AVC
Duration : 49 min
Bit rate mode : Constant
Bit rate : 7 051 kb/s
Width : 1 920 pixels
Height : 1 080 pixels
Display aspect ratio : 16:9
Frame rate mode : Constant
Frame rate : 25.000 FPS
Standard : PAL
Color space : YUV
Chroma subsampling : 4:2:0
Bit depth : 8 bits
Scan type : Progressive
Bits/(Pixel*Frame) : 0.136
Stream size : 2.37 GiB (95%)
Default : Yes
Forced : No
Color range : Limited
Color primaries : BT.709
Transfer characteristics : BT.709
Matrix coefficients : BT.709

Audio
ID : 2
Format : AC-3
Format/Info : Audio Coding 3
Mode extension : CM (complete main)
Format settings, Endianness : Big
Codec ID : A_AC3
Duration : 49 min
Bit rate mode : Constant
Bit rate : 192 kb/s
Channel(s) : 2 channels
Channel positions : Front: L R
Sampling rate : 48.0 kHz
Frame rate : 31.250 FPS (1536 spf)
Compression mode : Lossy
Stream size : 67.8 MiB (3%)
Default : Yes
Forced : No
pb.wtf



Скачать Один в поле воин через торрент http://i105.fastpic.ru/big/2018/0511/48/02b9784921a0e6114c763bc038043a48.jpg Скачать фильм Один в поле воин через торрент бесплантно в хорошем качестве Описание: В разгар войны группа красноармейцев попадает под трибунал. Их увозят из части, но по дороге солдаты попадают в засаду. В живых ... 7 10 3
Info! Золотая раздача, скачанное не засчитывается.
Торрент: Зарегистрирован [2018-05-11 11:51] · скачан: 202 раз
Статус: √ проверено
Размер: 9.17 GB
Как cкачать? Как скачать Один в поле воин через торрент | qTorrent

28-11-2019 20:33  

Отключить всю рекламу на сайте

11-05-2018 19:07 Один в поле воин Скачать торрент  

Описание не отвечает фильму.

Фильм о сбитом лётчике который спасал госпиталь, непонятным образом оказавшийся в серой зоне, от отряда немцев везущих экспонаты украденые из музея.pb.wtf



11-05-2018 20:17 Один в поле воин Скачать торрент  

4 серии полной бредятины!!!!!pb.wtf



06-06-2018 04:58 Один в поле воин Скачать торрент  

из молодёжки в военную драму Бакина не хватает... pb.wtf



    Дорогой пользователь! Огромная просьба, поблагодарите релизера, оцените раздачу и оставьте свои комментарий, если Вы скачали Один в поле воин через торрент бесплатно! Внесите свою лепту в развитие PiratBit!
    Комментировать посты могут только пользователи прошедшие не сложную регистрацию
    Показать сообщения:    

    Один в поле воин через торрент
    Скачать бесплатно Один в поле воин
    Один в поле воин скачать торрент
    Один в поле воин смотреть онлайн
    Cкачать фильм Один в поле воин бесплатно
    Один в поле воин скачать торрент в хорошем качестве
    Один в поле воин смотреть онлайн бесплатно в хорошем качестве


    Вы не можете начинать темы
    Вы не можете отвечать на сообщения
    Вы не можете редактировать свои сообщения
    Вы не можете удалять свои сообщения
    Вы не можете голосовать в опросах
    Вы не можете прикреплять файлы к сообщениям
    Вы можете скачивать файлы