Всегда рабочее зеркало без VPN и Proxy просто перед .vidak.icu напиши любое слово или цифру, Пример http://xdwk.vidak.icu

iTunes

2 сезон

1 сезон

1

1 сезон

iTunes

2 сезон

13

1 сезон

Deluxe

pack

Рекомендуем

Пиратка

30

ВАЖНО

RePack

MK11

RePack

jed

RePack

fifa19

RePack

RDR2

RePack

NEED FOR SPEED™ PAYBACK

Кинопоиск HD

6 сезон

 Острые козырьки 6 сезон

Все сериалы

все сериалы на PB.wtf

RePack

FAR CRY 5

Anonymous, нам критически не хватает 5601 руб. на оплату серверов и переферии за Апрель, помоги нам пожалуйста, вся надежда только на тебя. В благодарность мы отключим тебе всю рекламу на сайте!

×
  
Magnet ссылка

Зловещие мертвецы / The Evil Dead (Сэм Рэйми) [1981 г., ужасы, BD Remux, Авторский (одноголосый)] pb.wtf

Зловещие мертвецы через торрент pb.wtf

Размер: 16.93 GB | Добавлен: 4 года назад | Торрент скачан:4 раза
Смотреть онлайн Зловещие мертвецы | Скачать    Ребята, помогите собрать деньги на оплату серверов!!!

11-05-2018 21:22 Зловещие мертвецы Скачать торрент  

Зловещие мертвецы / The Evil Dead
Год выпуска: 1981
Страна: США
Жанр: ужасы
Продолжительность: 01:25:26
Перевод: Авторский (одноголосый) - А. Гаврилов
Субтитры: Отсутствуют

Режиссер: Сэм Рэйми

Бюджет: $350 000
Премьера в мире: 15 октября 1981

rating

В ролях: Брюс Кэмпбелл, Эллен Сэндвайсс, Ричард Де Мэннинкор, Бетси Бейкер, Тереза Тилли, Филип А. Гиллис, Дороти Тейперт, Шерил Гаттридж, Барбара Кэри, Дэвид Хортон

Описание: Молодые люди снимают на выходные загородный дом. Находится он в непролазной глуши, выглядит мрачно, а кругом — ни души. Аренда стоит копейки, но не потому, что он того и гляди развалится…

Раньше здесь жил археолог, после которого в подвале остались различные мистические артефакты. Например, книга мертвых, предметы неизвестных магических культов и магнитофон с записью заклинания на непонятном языке. Ребята запись прослушали… С наступлением темноты им предстоит встретиться с духами, которых они разбудили!

Качество: BD Remux
Формат: MKV
Видео кодек: MPEG-4 AVC
Аудио кодек: DTS
Видео: MPEG-4 AVC Video / 26902 kbps /1920х1080/ 23,976 fps / 16:9 / High Profile 4.1
Аудио#1: Russian / DTS-HD Master Audio / 5.1 / 48 kHz / ~1455 kbps / 16-bit (DTS Core: 5.1 / 48 kHz / 768 kbps / 16-bit) |Гаврилов|
скриншот   скриншот   скриншот  

General
Unique ID : 94718768306766945187098070988754609244 (0x47422BD4ED23C92150DA4C329029645C)
Complete name : E:\Фильмы\Зловещие Мертвецы.mkv
Format : Matroska
Format version : Version 4 / Version 2
File size : 16.9 GiB
Duration : 1 h 25 min
Overall bit rate mode : Variable
Overall bit rate : 28.4 Mb/s
Encoded date : UTC 2018-05-11 14:03:14
Writing application : mkvmerge v20.0.0 ('I Am The Sun') 64-bit
Writing library : libebml v1.3.5 + libmatroska v1.4.8

Video
ID : 1
Format : AVC
Format/Info : Advanced Video Codec
Format profile : High@L4.1
Format settings : CABAC / 2 Ref Frames
Format settings, CABAC : Yes
Format settings, RefFrames : 2 frames
Format settings, GOP : M=1, N=10
Codec ID : V_MPEG4/ISO/AVC
Duration : 1 h 25 min
Bit rate mode : Variable
Bit rate : 26.9 Mb/s
Width : 1 920 pixels
Height : 1 080 pixels
Display aspect ratio : 16:9
Frame rate mode : Constant
Frame rate : 23.976 (24000/1001) FPS
Color space : YUV
Chroma subsampling : 4:2:0
Bit depth : 8 bits
Scan type : Progressive
Bits/(Pixel*Frame) : 0.541
Stream size : 16.1 GiB (95%)
Title : The Evil Dead
Language : English
Default : No
Forced : No
Audio
ID : 2
Format : DTS
Format/Info : Digital Theater Systems
Format profile : MA / Core
Codec ID : A_DTS
Duration : 1 h 25 min
Bit rate mode : Variable / Constant
Bit rate : 1 472 kb/s / 768 kb/s
Channel(s) : 6 channels
Channel positions : Front: L C R, Side: L R, LFE
Sampling rate : 48.0 kHz
Frame rate : 93.750 FPS (512 SPF)
Bit depth : 16 bits
Compression mode : Lossless / Lossy
Stream size : 890 MiB (5%)
Title : Gavrilov - DTSHD-MA
Language : Russian
Default : No
Forced : No

Menu
00:00:00.000 : :1
00:03:32.671 : :2
00:07:24.611 : :3
00:12:36.923 : :4
00:16:17.935 : :5
00:19:20.993 : :6
00:23:13.142 : :7
00:27:03.789 : :8
00:29:34.606 : :9
00:34:25.689 : :10
00:38:21.549 : :11
00:41:30.238 : :12
00:43:27.438 : :13
00:46:39.588 : :14
00:49:37.558 : :15
00:54:35.314 : :16
00:57:33.450 : :17
01:00:43.431 : :18
01:06:45.460 : :19
01:08:54.505 : :20
01:11:56.437 : :21
01:15:29.984 : :22
01:19:06.325 : :23
01:21:46.944 : :24

pb.wtf



Скачать Зловещие мертвецы через торрент https://pic1.kartinco.top/images/11/aftsa.jpg Скачать, смотреть онлайн Зловещие мертвецы бесплантно в хорошем качестве Описание: Молодые люди снимают на выходные загородный дом. Находится он в непролазной глуши, выглядит мрачно, а кругом — ни души. Аренда ... 10 10 1
Info! Золотая раздача, скачанное не засчитывается.
Торрент: Зарегистрирован [2018-05-11 21:22] · скачан: 4 раз
Статус: √ проверено
Размер: 16.93 GB
Как cкачать? Как скачать Зловещие мертвецы через торрент | UTorrent

% Раздел Тема Автор DL S | L
Фильмы (Blu-ray, BD-Remux, HDDVD) [ 21.6 GB ] Зловещие мертвецы / The Evil Dead [1981 BDRemux 1080p] [Remastered] [Open Matte] MVO + 2xDVO + 6xAVO sheker187 Скачать
1 | 0
Ultra HD (UHD: 2K, 4K, 8K) — видео сверхвысокой чёткости [ 47.48 GB ] Зловещие мертвецы / The Evil Dead [1981 UHD BDRemux 2160p] MVO + 2xDVO + 5xAVO sheker187 Скачать
1 | 0
Фильмы с авторской озвучкой [ 2.19 GB ] Зловещие мертвецы / The Evil Dead [1981 BDRip] [Remastered Open Matte] 3x[AVO] killermax2013 Скачать
2 | 0
# Сборники на DVD и Сиквелы [DVDrip, WEB-DLRip, HDrip, BDRip] [ 11.52 GB ] Тетралогия -Зловещие мертвецы / The Evil Dead 1080p [19811987. 1992 2013 BDRip многоголосый закадровый ] roman_ke Скачать
3 | 0
Фильмы с авторской озвучкой [ 744 MB ] Зловещие мертвецы / The Evil Dead [1981 HDRip] AVO dexter lex Скачать
1 | 0
Фильмы до 2000 г. [ 1.68 GB ] Зловещие мертвецы / The Evil Dead [1981 BDRip] borislist1988 Скачать
1 | 0
Фильмы до 2000 г. [ 1.45 GB ] Зловещие мертвецы / The Evil Dead [1981 BDRip HQCLUB] vitjok_2 Скачать
1 | 0


Последний раз редактировалось: sander86 (2018-05-12 08:40), всего редактировалось 11 раз(а)

28-11-2019 20:33  

Отключить всю рекламу на сайте

12-05-2018 09:04 Зловещие мертвецы Скачать торрент  

sander86, ознакомьтесь, пожалуйста, с Правила оформления раздач в разделе «Фильмов».
1. Заметите постер, его размер должен быть не меньше 200х200 и не больше 700х700 пикселей, у вас сейчас постер 600х900.
2. Укажите в технических данных видео размер кадра, согласно приложенного вами отчета МедиаИнфо он составляет 1920х1080 пикселей.
3. Сделайте скриншоты самостоятельно с раздаваемого вами файла. Обратите внимание, скриншоты должны соответствовать размеру кадра раздаваемого видео файла, то есть они должны быть 1920х1080 пикселей, а не 1440х1080, как у вас сейчас.
4. Перевод А. Гаврилова - авторский, исправьте.
5. Если есть какие-то вопросы, пишите здесь или мне в л/с.
pb.wtf



12-05-2018 09:05 Зловещие мертвецы Скачать торрент  

Топик был перенесен из форума Оформление раздач (Кино, Видео и ТВ) в форум Фильмы с авторской озвучкой


-Lexx-pb.wtf



    Дорогой пользователь! Огромная просьба, поблагодарите релизера, оцените раздачу и оставьте свои комментарий, если Вы скачали Зловещие мертвецы через торрент бесплатно!
    Комментировать посты могут только пользователи прошедшие не сложную регистрацию
    Показать сообщения:    

    Зловещие мертвецы через торрент
    Скачать бесплатно Зловещие мертвецы
    Зловещие мертвецы скачать торрент
    Зловещие мертвецы смотреть онлайн
    Cкачать фильм Зловещие мертвецы бесплатно
    Зловещие мертвецы скачать торрент в хорошем качестве
    Зловещие мертвецы смотреть онлайн бесплатно в хорошем качестве


    Вы не можете начинать темы
    Вы не можете отвечать на сообщения
    Вы не можете редактировать свои сообщения
    Вы не можете удалять свои сообщения
    Вы не можете голосовать в опросах
    Вы не можете прикреплять файлы к сообщениям
    Вы можете скачивать файлы