Ссылка на приватное зеркало нашего сайта всего за 1$. Внимание количество ограничено!!!

2 сезон

iTunes

1 сезон

1

2 сезон

2 сезон

iTunes

1 сезон

RePack

30

Ultimate

ВАЖНО

ИГРА 18+

pack

RePack

MK11
pack

Забери бонус

RePack

jed

!!Акция!!

Alien_Rage

RePack

fifa19

RePack

Assassins Creed: Odyssey

RePack

NEED FOR SPEED™ PAYBACK

4 сезон

9 сезон

Бесстыжие 9 сезон

Все сериалы

все сериалы на PB.wtf

RePack

FAR CRY 5
  

Зловещие мертвецы 2 / Evil Dead II (Сэм Рэйми) [1987 г., ужасы, фэнтези, комедия, BD Remux, Профессиональный (многоголосый)] pb.wtf

Зловещие мертвецы 2 через торрент pb.wtf

Размер: 18.15 GB | Добавлен: 2 года 6 мес. назад | Торрент скачан:2 раза
Скачать  

12-05-2018 09:45 Зловещие мертвецы 2 Скачать торрент  

Зловещие мертвецы 2 / Evil Dead II
Год выпуска: 1987
Страна: США
Жанр: ужасы, фэнтези, комедия
Продолжительность: 01:24:13
Перевод: Профессиональный (многоголосый)
Субтитры: Отсутствуют

Режиссер: Сэм Рэйми

Бюджет: $3 500 000
Премьера в мире: 13 марта 1987

rating

В ролях: Брюс Кэмпбелл, Сара Берри, Дэн Хикс (Незваный Гость), Кэсси ДеПайва, Тед Рейми, Дениз Бикслер, Ричард Домайер, Джон Пикс, Лу Хэнкок (Амитивилль 4)

Описание: Молодой человек по имени Эш и девушка Линда приезжают в маленький домик, затерянный в лесах, с целью чудесно и романтично провести время. Осматривая дом, Эш находит старинную магическую книгу "Некрономикон" и магнитофон, на котором записаны таинственные магические заклинания. Но, будучи воспроизведенными, эти заклинания пробуждают могущественных духов, которые стремяться вселиться в живую в плоть. И Эшу с Линдой предстоит теперь встретиться с целой армией зловещих мертвецов!

Качество: BD Remux
Формат: MKV
Видео кодек: MPEG4 AVC
Аудио кодек: AC3
Видео: MPEG-4 AVC, 30550 kbps, 1080p, 23,976 fps, 16:9, High Profile 4.1, 1920x1080
Аудио#1: Dolby Digital Audio Russian 5.1 / 48 kHz / 448 kbps | R5
скриншот   скриншот   скриншот   скриншот   скриншот  





General
Unique ID : 253663080133312908107469964782491758565 (0xBED5BB703DE9842DB92C118E23A96FE5)
Complete name : E:\Фильмы\Зловещие Мертвецы 2.mkv
Format : Matroska
Format version : Version 4 / Version 2
File size : 18.2 GiB
Duration : 1 h 24 min
Overall bit rate mode : Variable
Overall bit rate : 30.8 Mb/s
Encoded date : UTC 2018-05-12 07:03:31
Writing application : mkvmerge v20.0.0 ('I Am The Sun') 64-bit
Writing library : libebml v1.3.5 + libmatroska v1.4.8

Video
ID : 1
Format : AVC
Format/Info : Advanced Video Codec
Format profile : High@L4.1
Format settings : CABAC / 4 Ref Frames
Format settings, CABAC : Yes
Format settings, RefFrames : 4 frames
Codec ID : V_MPEG4/ISO/AVC
Duration : 1 h 24 min
Bit rate mode : Variable
Bit rate : 30.4 Mb/s
Maximum bit rate : 37.0 Mb/s
Width : 1 920 pixels
Height : 1 080 pixels
Display aspect ratio : 16:9
Frame rate mode : Constant
Frame rate : 23.976 (24000/1001) FPS
Color space : YUV
Chroma subsampling : 4:2:0
Bit depth : 8 bits
Scan type : Progressive
Bits/(Pixel*Frame) : 0.611
Stream size : 17.9 GiB (99%)
Title : Evil Dead II 1987 25th Anniversary Edition 1080p Blu-ray AVC DTS-HD MA 5.1
Language : English
Default : Yes
Forced : No

Audio
ID : 2
Format : AC-3
Format/Info : Audio Coding 3
Codec ID : A_AC3
Duration : 1 h 24 min
Bit rate mode : Constant
Bit rate : 448 kb/s
Channel(s) : 6 channels
Channel positions : Front: L C R, Side: L R, LFE
Sampling rate : 48.0 kHz
Frame rate : 31.250 FPS (1536 SPF)
Bit depth : 16 bits
Compression mode : Lossy
Stream size : 270 MiB (1%)
Title : MVO [CP Digital]
Language : Russian
Service kind : Complete Main
Default : Yes
Forced : No

Menu
00:00:00.000 : en:00:00:00.000
00:09:41.498 : en:00:09:41.498
00:26:05.355 : en:00:26:05.355
00:50:22.061 : en:00:50:22.061
01:01:46.995 : en:01:01:46.995
01:13:12.054 : en:01:13:12.054
01:26:16.797 : en:01:26:16.797

pb.wtf



Скачать Зловещие мертвецы 2 через торрент http://pic1.kartinco.top/images/11/297z2.jpg Скачать фильм Зловещие мертвецы 2 через торрент бесплантно в хорошем качестве Описание: Молодой человек по имени Эш и девушка Линда приезжают в маленький домик, затерянный в лесах, с целью чудесно и романтично ... 9 10 2
Info! Золотая раздача, скачанное не засчитывается.
Торрент: Зарегистрирован [2018-05-12 09:45] · скачан: 2 раз
Статус: √ проверено
Размер: 18.15 GB
Как cкачать? Как скачать Зловещие мертвецы 2 через торрент | qTorrent

% Раздел Тема Автор DL S | L
Ultra HD (UHD: 2K, 4K, 8K) — видео сверхвысокой чёткости [ 45.74 GB ] Зловещие мертвецы 2 / Evil Dead II [1987 UHD BDRemux 2160p] 2xMVO + DVO + 6xAVO + VO sheker187 Скачать
1 | 0
Фильмы до 2000 г. [ 1.46 GB ] Зловещие мертвецы 2 / Evil Dead II [1987 HDRip] MVO dexter lex Скачать
1 | 0
Фильмы до 2000 г. [ 745 MB ] Зловещие мертвецы 2 / Evil Dead II [1987 HDRip-AVC] MVO + Subs dexter lex Скачать
1 | 0

28-11-2019 20:33  

Отключить всю рекламу на сайте

12-05-2018 09:55 Зловещие мертвецы 2 Скачать торрент  

Топик был перенесен из форума Оформление раздач (Кино, Видео и ТВ) в форум Фильмы (Blu-ray, BD-Remux, HDDVD)


-Lexx-pb.wtf



    Дорогой пользователь! Огромная просьба, поблагодарите релизера, оцените раздачу и оставьте свои комментарий, если Вы скачали Зловещие мертвецы 2 через торрент бесплатно! Внесите свою лепту в развитие PiratBit!
    Комментировать посты могут только пользователи прошедшие не сложную регистрацию
    Показать сообщения:    

    Зловещие мертвецы 2 через торрент
    Скачать бесплатно Зловещие мертвецы 2
    Зловещие мертвецы 2 скачать торрент
    Зловещие мертвецы 2 смотреть онлайн
    Cкачать фильм Зловещие мертвецы 2 бесплатно
    Зловещие мертвецы 2 скачать торрент в хорошем качестве
    Зловещие мертвецы 2 смотреть онлайн бесплатно в хорошем качестве


    Вы не можете начинать темы
    Вы не можете отвечать на сообщения
    Вы не можете редактировать свои сообщения
    Вы не можете удалять свои сообщения
    Вы не можете голосовать в опросах
    Вы не можете прикреплять файлы к сообщениям
    Вы можете скачивать файлы