новый адрес
Ссылка на приватное зеркало всего за 1$. Внимание количество ограничено!!!

iTunes

1+1

iTunes

мы

WEB-DL

1

iTunes

Чернобыль

iTunes

Ральф против интернета

Лицензия

ПШазам

Лицензия

Оно 2

Лицензия

30
pack

Вам бонус

ВАЖНО

!!Акция!!

Alien_RageХит недели

RePack

Resident Evil 21

ИГРА 18+

pack

RePack

jed

!!Акция!!

Alien_Rage

RePack

fifa19

RePack

Assassins Creed: Odyssey

RePack

NEED FOR SPEED™ PAYBACK

3 сезон

9 сезон

Бесстыжие 9 сезон

Все сериалы

все сериалы на PB.wtf

RePack

FAR CRY 5
Ребята, катастрофически не хватает 1900р. для оплаты серверов за Октябрь (всвязи с блокировками трафик упал в 3 раза), 1-2р., выручайте.
  

Неделя до... / The Week Of (Роберт Шмигель) [2018 г., Комедия, WEBRip-AVC] MVO [HDrezka Studio] pb.wtf

Неделя до... через торрент pb.wtf

Раздают: 2 [ 0 KB/s ]
Размер: 1.62 GB | Добавлен: 1 год 6 мес. назад | Торрент скачан:582 раза
Скачать  

12-05-2018 11:27 Неделя до... Скачать торрент  

Неделя до... / The Week Of

Год выпуска: 2018
Страна: США
Жанр: Комедия
Продолжительность: 01:58:27
Перевод: Профессиональный (многоголосый) [HDrezka Studio]

Режиссер

Роберт Шмигель

rating

В ролях

Адам Сэндлер, Крис Рок, Стив Бушеми, Рэйчел Дрэч, Эллисон Стронг, Роланд Бак, Кэти Хартман, Хлоя Химмелман, Джейк Липман, Джим Барон

Описание

Двое взрослых мужчин недавно узнали от своих детей, что те встречаются и желают пожениться, поэтому будущие сваты решают не просто познакомиться друг с другом, но еще и распланировать предстоящее торжество. Ровно за неделю до предстоящего бракосочетания отцы понимают, что у них уже сделан огромный объем работ, и осталось лишь сделать несколько финальных штрихов для будущего мероприятия. Однако в планы мужчин начинают вмешиваться различные непонятные случаи, которые могут разрушить все то, что они так усердно готовили. Но если уж отцы решили сделать праздник для своих детей, то их ничто не остановит.

Качество: WEBRip-AVC
Формат: MKV
Видео кодек: AVC
Аудио кодек: AC3
Видео: H.264, 1534 Кбит/с, 1024x554
Аудио: AC3, 2 ch, 384 Кбит/с
скриншот  скриншот  скриншот  

General
Unique ID : 144115556013332225375564353165843370808 (0x6C6BA57F91D8523A2F64B6CF4C121338)
Complete name : D:\Неделя до...2018.WEBRip (AVC).mkv
Format : Matroska
Format version : Version 4 / Version 2
File size : 1.62 GiB
Duration : 1h 58mn
Overall bit rate : 1 957 Kbps
Writing application : XviD4PSP 7.0.451 DAILY
Writing library : Lavf57.71.100 / Lavf57.71.100
ENCODING_INFO : MATROSKA,WEBM > MKV / H264 > X264 CRF 21.0 HQ / AC3 > AC3 CBR 384kbps

Video
ID : 1
Format : AVC
Format/Info : Advanced Video Codec
Format profile : High@L3.1
Format settings, CABAC : Yes
Format settings, ReFrames : 4 frames
Codec ID : V_MPEG4/ISO/AVC
Duration : 1h 58mn
Bit rate : 1 534 Kbps
Width : 1 024 pixels
Height : 554 pixels
Display aspect ratio : 1.85:1
Frame rate mode : Constant
Frame rate : 23.976 (24000/1001) fps
Color space : YUV
Chroma subsampling : 4:2:0
Bit depth : 8 bits
Scan type : Progressive
Bits/(Pixel*Frame) : 0.113
Stream size : 1.27 GiB (78%)
Writing library : x264 core 155 r2901M 7d0ff22
Encoding settings : cabac=1 / ref=3 / deblock=1:-1:-1 / analyse=0x3:0x133 / me=hex / subme=7 / psy=1 / psy_rd=1.00:0.20 / mixed_ref=1 / me_range=16 / chroma_me=1 / trellis=1 / 8x8dct=1 / cqm=0 / deadzone=21,11 / fast_pskip=1 / chroma_qp_offset=-3 / threads=5 / lookahead_threads=1 / sliced_threads=0 / nr=0 / decimate=1 / interlaced=0 / bluray_compat=0 / constrained_intra=0 / bframes=3 / b_pyramid=2 / b_adapt=2 / b_bias=0 / direct=3 / weightb=1 / open_gop=0 / weightp=2 / keyint=240 / keyint_min=24 / scenecut=40 / intra_refresh=0 / rc_lookahead=40 / rc=crf / mbtree=1 / crf=21.0 / qcomp=0.60 / qpmin=0 / qpmax=69 / qpstep=4 / ip_ratio=1.40 / aq=1:1.00
Language : English
Default : Yes
Forced : No

Audio
ID : 2
Format : AC-3
Format/Info : Audio Coding 3
Mode extension : CM (complete main)
Format settings, Endianness : Big
Codec ID : A_AC3
Duration : 1h 58mn
Bit rate mode : Constant
Bit rate : 384 Kbps
Channel(s) : 2 channels
Channel positions : Front: L R
Sampling rate : 48.0 KHz
Frame rate : 31.250 fps (1536 spf)
Bit depth : 32 bits
Compression mode : Lossy
Stream size : 325 MiB (20%)
Language : Russian
Default : No
Forced : Yes

pb.wtf



Скачать Неделя до... через торрент http://img12.lostpic.net/2018/05/09/6d7184a95b8df9e5e48b3f2a2622c1b2.jpg Скачать фильм Неделя до... через торрент бесплантно в хорошем качестве ОписаниеДвое взрослых мужчин недавно узнали от своих детей, что те встречаются и желают пожениться, поэтому будущие сваты решают не просто ... 9.1 10 18
Торрент: Зарегистрирован [2018-05-12 11:27] · скачан: 582 раз
Статус: T временная
Размер: 1.62 GB
Как cкачать? Как скачать Неделя до... через торрент | qTorrent

% Раздел Тема Автор DL S | L
Фильмы 2018 [DVDrip, WEB-DLRip, HDrip] (DUB, MVO) [ 1.45 GB ] Неделя до... / The Week Of [2018 WEB-DLRip] MVO [HDrezka Studio] bober100 Скачать
2 | 0
Фильмы (WEB-DL 720p, 1080p) [ 4.09 GB ] Неделя до... / The Week Of [2018 WEB-DL 1080p] MVO [HDrezka Studio] bober100 Скачать
1 | 0

28-11-2019 20:33  

Отключить всю рекламу на сайте

20-05-2018 14:06 Неделя до... Скачать торрент  

тупой фильмpb.wtf



    Дорогой пользователь! Огромная просьба, поблагодарите релизера, оцените раздачу и оставьте свои комментарий, если Вы скачали Неделя до... через торрент бесплатно! Внесите свою лепту в развитие PiratBit!
    Комментировать посты могут только пользователи прошедшие не сложную регистрацию
    Показать сообщения:    

    Неделя до... через торрент
    Скачать бесплатно Неделя до...
    Неделя до... скачать торрент
    Неделя до... смотреть онлайн
    Cкачать фильм Неделя до... бесплатно
    Неделя до... скачать торрент в хорошем качестве
    Неделя до... смотреть онлайн бесплатно в хорошем качестве


    Вы не можете начинать темы
    Вы не можете отвечать на сообщения
    Вы не можете редактировать свои сообщения
    Вы не можете удалять свои сообщения
    Вы не можете голосовать в опросах
    Вы не можете прикреплять файлы к сообщениям
    Вы можете скачивать файлы