Мега распродажа FORZA HORIZON 4 ULTIMATE+ВСЕ DLC+ОНЛАЙН всего за 499р. 349 руб. (супер цена). Внимание количество ограничено!!!

iTunes

1+1

iTunes

мы

iTunes

1

1 сезон

Чернобыль

1 сезон

Ральф против интернета

Лицензия

ПШазам

8 сезон

Игра престолов

Лицензия

30
pack

ВАЖНО

!!Акция!!

Alien_RageХит недели

RePack

Resident Evil 21

ИГРА 18+

pack

RePack

Metro:Exodus

!!Акция!!

Alien_Rage

RePack

fifa19

RePack

Assassins Creed: Odyssey

RePack

NEED FOR SPEED™ PAYBACK

3 сезон

9 сезон

Бесстыжие 9 сезон

Все сериалы

все сериалы на PB.wtf

RePack

FAR CRY 5
Ребята, катастрофически не хватает 2730р. для оплаты серверов за ИЮНЬ (всвязи с блокировками трафик упал в 3 раза), 1-2р., выручайте.
  

Горячая жевательная резинка 7: Молодая любовь / Ahava Tzeira (Уолтер Баннерт) [1987 г., Комедия, DVDRip-AVC, Любительский (одноголосый)] от ExKinoRay pb.wtf

Горячая жевательная резинка 7: Молодая любовь через торрент pb.wtf

Размер: 2.04 GB | Добавлен: 1 год 2 мес. назад | Торрент скачан:57 раз
Скачать  

12-05-2018 17:31 Горячая жевательная резинка 7: Молодая любовь Скачать торрент  

Горячая жевательная резинка 7: Молодая любовь / Ahava Tzeira
Год выпуска: 1987
Страна: Германия (ФРГ), Израиль
Жанр: Комедия
Продолжительность: 01:26:20
Перевод: Любительский (одноголосый)

Режиссер: Уолтер Баннерт

Премьера в мире: 21 мая 1987

rating

В ролях: Захи Ной, Ифтах Кацур, Джонатан Сегалл, Соня Мартин, Зиси Пиц, Ева Астор, Михаэль Гар, Линда Кароль, Леонард Лансинк, Зибилле Раух

Описание: Родители Джонни уехали в отпуск на три недели и оставили в городе роскошный «Кадиллак». А его друзья Бенци и Бобби предложили отправиться на машине в небольшую поездку, чтобы познакомиться с новыми симпатичными девушками. Но вот беда — в результате поездки «Кадиллак» серьёзно пострадал. И, чтобы заработать деньги на ремонт машины, друзья устраиваются работать в пятизвёздочный отель. А там их ждут новые приключения и много-много красивых девушек.

Качество: DVDRip-AVC
Формат: MKV
Видео кодек: MPEG4
Аудио кодек: AC3
Видео: MPEG-4 AVC, 3000 Кбит/с, 676x572@960x572, 25 кадров/сек
Аудио#1: Русский (AC3, 2 ch, 192 Кбит/с, 48 КГц)
Аудио#2: Немецкий (AC3, 2 ch, 192 Кбит/с, 48 КГц)
Релиз от:




Общее
Уникальный идентификатор : 172191229780103646977972955772158282447 (0x818AD31653C5468BB42C3200310D0ACF)
Полное имя : D:\ExKinoRay\Bubblegum7.1987.DVDRip-AVC.ExKinoRay.mkv
Формат : Matroska
Версия формата : Version 2
Размер файла : 2,04 Гбайт
Продолжительность : 1 ч. 26 м.
Общий поток : 3385 Кбит/сек
Дата кодирования : UTC 2018-05-12 14:43:11
Программа кодирования : mkvmerge v7.8.0 ('River Man') 32bit built on Apr 3 2015 12:11:22
Библиотека кодирования : libebml v1.3.1 + libmatroska v1.4.2

Видео
Идентификатор : 1
Формат : AVC
Формат/Информация : Advanced Video Codec
Профиль формата : High@L4.1
Параметр CABAC формата : Да
Параметр ReFrames формата : 14 кадров
Идентификатор кодека : V_MPEG4/ISO/AVC
Продолжительность : 1 ч. 26 м.
Битрейт : 3000 Кбит/сек
Ширина : 676 пикселей
Высота : 572 пикселя
Соотношение сторон : 5:3
Соотношение сторон в оригинале : 5:3
Режим частоты кадров : Постоянный
Частота кадров : 25,000 кадров/сек
Цветовое пространство : YUV
Субдискретизация насыщенности : 4:2:0
Битовая глубина : 8 бит
Тип развёртки : Прогрессивная
Бит/(Пиксели*Кадры) : 0.310
Размер потока : 1,77 Гбайт (87%)
Библиотека кодирования : x264 core 148 r2638 7599210
Настройки программы : cabac=1 / ref=14 / deblock=1:-2:-2 / analyse=0x3:0x133 / me=umh / subme=10 / psy=1 / psy_rd=1.05:0.15 / mixed_ref=1 / me_range=32 /

chroma_me=1 / trellis=2 / 8x8dct=1 / cqm=0 / deadzone=21,11 / fast_pskip=0 / chroma_qp_offset=-3 / threads=4 / lookahead_threads=1 / sliced_threads=0 / nr=0 / decimate=0 /

interlaced=0 / bluray_compat=0 / constrained_intra=0 / bframes=16 / b_pyramid=2 / b_adapt=2 / b_bias=0 / direct=3 / weightb=1 / open_gop=0 / weightp=2 / keyint=250 /

keyint_min=25 / scenecut=40 / intra_refresh=0 / rc=2pass / mbtree=0 / bitrate=3000 / ratetol=1.0 / qcomp=0.60 / qpmin=0 / qpmax=69 / qpstep=4 / cplxblur=20.0 / qblur=0.5 /

ip_ratio=1.40 / pb_ratio=1.30 / aq=1:1.00
Язык : English
Default : Да
Forced : Нет
Цветовой диапазон : Limited
Основные цвета : BT.601 NTSC
Характеристики трансфера : BT.601
Коэффициенты матрицы : BT.601

Аудио #1
Идентификатор : 2
Формат : AC-3
Формат/Информация : Audio Coding 3
Профиль формата : Dolby Digital
Расширение режима : CM (complete main)
Параметр Endianness формата : Big
Идентификатор кодека : A_AC3
Продолжительность : 1 ч. 26 м.
Вид битрейта : Постоянный
Битрейт : 192 Кбит/сек
Каналы : 2 канала
Расположение каналов : Front: L R
Частота : 48,0 КГц
Частота кадров : 31,250 кадров/сек (1536 spf)
Метод сжатия : С потерями
Размер потока : 119 Мбайт (6%)
Язык : Russian
Default : Да
Forced : Нет

Аудио #2
Идентификатор : 3
Формат : AC-3
Формат/Информация : Audio Coding 3
Профиль формата : Dolby Digital
Расширение режима : CM (complete main)
Параметр Endianness формата : Big
Идентификатор кодека : A_AC3
Продолжительность : 1 ч. 26 м.
Вид битрейта : Постоянный
Битрейт : 192 Кбит/сек
Каналы : 2 канала
Расположение каналов : Front: L R
Частота : 48,0 КГц
Частота кадров : 31,250 кадров/сек (1536 spf)
Метод сжатия : С потерями
Размер потока : 119 Мбайт (6%)
Язык : German
Default : Нет
Forced : Нет

pb.wtf



Скачать Горячая жевательная резинка 7: Молодая любовь через торрент http://c.radikal.ru/c12/1805/d5/680fae1025a7.jpg Скачать фильм Горячая жевательная резинка 7: Молодая любовь через торрент бесплантно в хорошем качестве Описание: Родители Джонни уехали в отпуск на три недели и оставили в городе роскошный «Кадиллак». А его друзья Бенци и Бобби предложили ... 10 10 2
Info! Золотая раздача, скачанное не засчитывается.
Торрент: Зарегистрирован [2018-05-12 17:31] · скачан: 57 раз
Статус: √ проверено
Размер: 2.04 GB
Как cкачать? Как скачать Горячая жевательная резинка 7: Молодая любовь через торрент | qTorrent


>> Регистрируемся здесь <<






Отзывы и комментарии о схеме читаем и пишем здесь: ---> Отзывы и комментарии о схеме

Новые благодарочки в телеграм довольных пользователей:
скриншот   скриншот   скриншот   скриншот   скриншот

12-05-2018 17:36 Горячая жевательная резинка 7: Молодая любовь Скачать торрент  

Топик был перенесен из форума Оформление раздач (Кино, Видео и ТВ) в форум Фильмы до 2000 г.


-Lexx-pb.wtf



    Дорогой пользователь! Огромная просьба, поблагодарите релизера, оцените раздачу и оставьте свои комментарий, если Вы скачали Горячая жевательная резинка 7: Молодая любовь через торрент бесплатно! Внесите свою лепту в развитие PiratBit!
    Комментировать посты могут только пользователи прошедшие не сложную регистрацию
    Показать сообщения:    

    Горячая жевательная резинка 7: Молодая любовь через торрент
    Скачать бесплатно Горячая жевательная резинка 7: Молодая любовь
    Горячая жевательная резинка 7: Молодая любовь скачать торрент
    Горячая жевательная резинка 7: Молодая любовь смотреть онлайн
    Cкачать фильм Горячая жевательная резинка 7: Молодая любовь бесплатно
    Горячая жевательная резинка 7: Молодая любовь скачать торрент в хорошем качестве
    Горячая жевательная резинка 7: Молодая любовь смотреть онлайн бесплатно в хорошем качестве


    Вы не можете начинать темы
    Вы не можете отвечать на сообщения
    Вы не можете редактировать свои сообщения
    Вы не можете удалять свои сообщения
    Вы не можете голосовать в опросах
    Вы не можете прикреплять файлы к сообщениям
    Вы можете скачивать файлы