2 сезон

iTunes

MVO

1

2 сезон

iTunes

iTunes

1 сезон

RePack

30

Новинка

ВАЖНО

ИГРА 18+

pack

RePack

MK11
pack

Легкие деньги

RePack

jed

RePack

fifa19

RePack

RDR2

RePack

NEED FOR SPEED™ PAYBACK

4 сезон

9 сезон

Бесстыжие 9 сезон

Все сериалы

все сериалы на PB.wtf

RePack

FAR CRY 5

Anonymous, доброй ночи, мы не успеваем собрать деньги на оплату серверов за декабрь и январь, помогите нам пожалуйста в это трудное время. В качестве благодарности мы отключим Вам всю рекламу на сайте (укажите свой ник в строку Ваше имя)!

×
  
Magnet ссылка

Няня / The Babysitter (МакДжи / McG) [2017 г., Ужасы, комедия, WEBRip, Дубляж] Локализованный видеоряд pb.wtf

Няня через торрент pb.wtf

Раздают: 1 [ 0 KB/s ]
Размер: 1.46 GB | Добавлен: 2 года 8 мес. назад | Торрент скачан:275 раз
Скачать  

12-05-2018 23:25 Няня Скачать торрент  

Няня / The Babysitter
Год выпуска: 2017
Страна: США
Жанр: Ужасы, комедия
Продолжительность: 01:25:13
Перевод: Любительский (дублированный) IS&Greta Studio

Режиссер: МакДжи / McG

rating

В ролях: Джуда Льюис, Самара Уивинг, Робби Амелл, Хана Мэй Ли, Белла Торн, Эмили Элин Линд, Эндрю Бэчелор, Даг Хейли, Лесли Бибб, Кен Марино

Описание: Коул по уши влюблён в свою няню Би — красивую, весёлую, умную и уверенную в себе девушку. Однажды ночью мальчишка решает не ложиться спать и проследить за ней. Но события принимают неожиданный поворот: няня оказывается хладнокровной убийцей, служащей самому дьяволу.

Доп. информация: Режиссёр дубляжа: Ной Захаров
Звукорежиссёр: Сергей Меняев
Перевод: Любомир Павлов
Художник: Ангелина Алексеева
Роли дублировали:
Инесса Реймхе
Никита Крылов
Алексей Клерик

Качество: WEBRip
Формат: AVI
Видео кодек: XviD
Видео: Xvid MPEG-4, 720x304, 23.976fps, 2000 kbp/s
Аудио#1: AC3 Dolby Digital, 48 kHz, 448 kbps, 6 channels (Front: L C R, Side: L R, LFE)
General
Format : AVI
Format/Info : Audio Video Interleave
File size : 1.46 GiB
Duration : 1 h 25 min
Overall bit rate : 2 460 kb/s
Writing application : VirtualDubMod 1.5.10.3 | www.virtualdub-fr.org || (build 2550/release)
Writing library : VirtualDubMod build 2550/release

Video
ID : 0
Format : MPEG-4 Visual
Format profile : Advanced Simple@L5
Format settings : BVOP2
Format settings, BVOP : 2
Format settings, QPel : No
Format settings, GMC : No warppoints
Format settings, Matrix : Default (H.263)
Codec ID : XVID
Codec ID/Hint : XviD
Duration : 1 h 25 min
Bit rate : 2 003 kb/s
Width : 720 pixels
Height : 304 pixels
Display aspect ratio : 2.35:1
Frame rate : 23.976 (24000/1001) FPS
Color space : YUV
Chroma subsampling : 4:2:0
Bit depth : 8 bits
Scan type : Progressive
Compression mode : Lossy
Bits/(Pixel*Frame) : 0.382
Stream size : 1.19 GiB (81%)
Writing library : XviD 1.2.1 (UTC 2008-12-04)

Audio
ID : 1
Format : AC-3
Format/Info : Audio Coding 3
Codec ID : 2000
Duration : 1 h 25 min
Bit rate mode : Constant
Bit rate : 448 kb/s
Channel(s) : 6 channels
Channel positions : Front: L C R, Side: L R, LFE
Sampling rate : 48.0 kHz
Frame rate : 31.250 FPS (1536 SPF)
Bit depth : 16 bits
Compression mode : Lossy
Stream size : 273 MiB (18%)
Alignment : Split accross interleaves
Interleave, duration : 42 ms (1.00 video frame)
Interleave, preload duration : 500 ms
Title : IS&Greta Studio
Service kind : Complete Main


--> НАШ YOUTUBE КАНАЛ
--> МЫ ВКОНТАКТЕ
-- > PiratVoice. Обсуждение и помощь проекту.
pb.wtf



Скачать Няня через торрент http://i104.fastpic.ru/big/2018/0512/66/6156e9a0c5ffe64a131cd182a9fef166.jpg Скачать фильм Няня через торрент бесплантно в хорошем качестве Описание: Коул по уши влюблён в свою няню Би — красивую, весёлую, умную и уверенную в себе девушку. Однажды ночью мальчишка решает не ... 8.6 10 10
Info! Золотая раздача, скачанное не засчитывается.
Торрент: Зарегистрирован [2018-05-12 23:25] · скачан: 275 раз
Статус: √ проверено
Размер: 1.46 GB
Как cкачать? Как скачать Няня через торрент | UTorrent

28-11-2019 20:33  

Отключить всю рекламу на сайте

13-05-2018 03:15 Няня Скачать торрент  

...а 1080 есть?pb.wtf



13-05-2018 03:28 Няня Скачать торрент  

Userman4ik, с этой озвучкой только в таком качестве.pb.wtf



17-05-2018 11:40 Няня Скачать торрент  

фильм глянуть конечно можно разок как минимум но дубляж тут совсем убогийpb.wtf



    Дорогой пользователь! Огромная просьба, поблагодарите релизера, оцените раздачу и оставьте свои комментарий, если Вы скачали Няня через торрент бесплатно! Внесите свою лепту в развитие PiratBit!
    Комментировать посты могут только пользователи прошедшие не сложную регистрацию
    Показать сообщения:    

    Няня через торрент
    Скачать бесплатно Няня
    Няня скачать торрент
    Няня смотреть онлайн
    Cкачать фильм Няня бесплатно
    Няня скачать торрент в хорошем качестве
    Няня смотреть онлайн бесплатно в хорошем качестве


    Вы не можете начинать темы
    Вы не можете отвечать на сообщения
    Вы не можете редактировать свои сообщения
    Вы не можете удалять свои сообщения
    Вы не можете голосовать в опросах
    Вы не можете прикреплять файлы к сообщениям
    Вы можете скачивать файлы