Ссылка на приватное зеркало нашего сайта всего за 1$. Внимание количество ограничено!!!

2 сезон

iTunes

1 сезон

1

2 сезон

2 сезон

iTunes

1 сезон

RePack

30

Ultimate

ВАЖНО

ИГРА 18+

pack

RePack

MK11
pack

Забери бонус

RePack

jed

!!Акция!!

Alien_Rage

RePack

fifa19

RePack

Assassins Creed: Odyssey

RePack

NEED FOR SPEED™ PAYBACK

4 сезон

9 сезон

Бесстыжие 9 сезон

Все сериалы

все сериалы на PB.wtf

RePack

FAR CRY 5
  

Патрик Мелроуз / Patrick Melrose / Сезон: 1 / Серии: 1-4 (5) (Эдвард Бергер) [2018, Драма, WEB-DLRip] [MVO] (Amedia) pb.wtf

Патрик Мелроуз через торрент pb.wtf

Размер: 3.02 GB | Добавлен: 2 года 5 мес. назад | Торрент скачан:23 раза
Скачать  

13-05-2018 11:52 Патрик Мелроуз Скачать торрент  

Патрик Мелроуз / Patrick Melrose
Год выпуска: 2018
Страна: США
Жанр: Драма
Продолжительность: ~ 01:00:00
Перевод: Профессиональный (многоголосый закадровый)[Novamedia по заказу Амедиа]

Режиссёр: Эдвард Бергер

В ролях: Бенедикт Камбербэтч, Дженнифер Джейсон Ли, Джессика Рэйн, Хьюго Уивинг, Прасанна Пуванараджа, Пип Торренс, Анна Маделей, Индира Варма, Дейнтон Андерсон

Описание:
Патрик Мелроуз — плейбой, аристократ и алкоголик. Несмотря на деньги, жизнь Патрика сложно назвать легкой и безмятежной. Все детство ему пришлось терпеть жестокое отношение отца, пока мать предпочитала не вмешиваться. Подросший Патрик находит в себе силы пробраться в высший свет, но вместе с этим начинается его путь к саморазрушению.



Качество: WEB-DLRip
Формат: AVI
Видео: XviD, ~ 1500 Кбит/с, 720х360, 23.976 fps
Аудио: AC3, 48 kHz, 2 ch, 192 kbps
General
Complete name : F:\Patrick Melrose .S01E01.Amedia.avi
Format : AVI
Format/Info : Audio Video Interleave
File size : 800 MiB
Duration : 1 h 3 min
Overall bit rate : 1 752 kb/s
Movie name : P4tp1k.M3Lp0yz.S01E01.Am3d1a
Writing application : VirtualDubMod 1.5.10.2 (build 2540/release)
Original source form/Name : Movie

Video
ID : 0
Format : MPEG-4 Visual
Format profile : Advanced Simple@L5
Format settings : BVOP2
Format settings, BVOP : 2
Format settings, QPel : No
Format settings, GMC : No warppoints
Format settings, Matrix : Default (MPEG)
Codec ID : XVID
Codec ID/Hint : XviD
Duration : 1 h 3 min
Bit rate : 1 482 kb/s
Width : 720 pixels
Height : 360 pixels
Display aspect ratio : 2.000
Frame rate : 23.976 (24000/1001) FPS
Color space : YUV
Chroma subsampling : 4:2:0
Bit depth : 8 bits
Scan type : Progressive
Compression mode : Lossy
Bits/(Pixel*Frame) : 0.238
Stream size : 677 MiB (85%)
Writing library : XviD 1.2.1 (UTC 2008-12-04)

Audio
ID : 1
Format : AC-3
Format/Info : Audio Coding 3
Format settings, Endianness : Big
Codec ID : 2000
Duration : 1 h 3 min
Bit rate mode : Constant
Bit rate : 192 kb/s
Channel(s) : 2 channels
Channel positions : Front: L R
Sampling rate : 48.0 kHz
Frame rate : 31.250 FPS (1536 SPF)
Bit depth : 16 bits
Compression mode : Lossy
Stream size : 87.7 MiB (11%)
Alignment : Split accross interleaves
Service kind : Complete Main
скриншот  скриншот  скриншот  
Внимание! Раздача ведётся путём добавления новых серий; при каждом добавлении создаётся новый торрент. Чтобы начать докачку новой серии, пользователям необходимо сделать следующее:
(1) остановить скачивание,
(2) удалить старый торрент у себя из клиента (старые серии удалять не надо),
(3) скачать новый торрент и запустить его у себя в клиенте вместо старого, при этом указать клиенту путь в старую папку куда и должно происходить скачивание новых серий.

Ваш клиент при этом должен произвести хеширование (проверку) старой папки (если не производит сам - помогите ему сделать это), и будет докачивать только те серии которых у вас ещё нет. Старые серии при этом не удаляются, а продолжают раздаваться!

Eсли вы уже удалили старые серии, то предотвратить повторную закачку старых серий можно, отжав галочку в соответствующих местах при запуске нового торрента. По возможности, желательно не удалять старые серии как можно дольше чтобы релизёр не столько продолжал раздавать старые серии, а смог сконцентрироваться на новых.
pb.wtf



Скачать Патрик Мелроуз через торрент http://i104.fastpic.ru/big/2018/0513/5c/47feeb11fad57b6e1626597d4a8d035c.jpg Скачать фильм Патрик Мелроуз через торрент бесплантно в хорошем качестве Описание:Патрик Мелроуз — плейбой, аристократ и алкоголик. Несмотря на деньги, жизнь Патрика сложно назвать легкой и безмятежной. Все ... 10 10 1
Торрент: Зарегистрирован [2018-06-05 17:44] · скачан: 23 раз
Статус: √ проверено
Размер: 3.02 GB
Как cкачать? Как скачать Патрик Мелроуз через торрент | qTorrent

28-11-2019 20:33  

Отключить всю рекламу на сайте

    Дорогой пользователь! Огромная просьба, поблагодарите релизера, оцените раздачу и оставьте свои комментарий, если Вы скачали Патрик Мелроуз через торрент бесплатно! Внесите свою лепту в развитие PiratBit!
    Комментировать посты могут только пользователи прошедшие не сложную регистрацию
    Показать сообщения:    

    Патрик Мелроуз через торрент
    Скачать бесплатно Патрик Мелроуз
    Патрик Мелроуз скачать торрент
    Патрик Мелроуз смотреть онлайн
    Cкачать фильм Патрик Мелроуз бесплатно
    Патрик Мелроуз скачать торрент в хорошем качестве
    Патрик Мелроуз смотреть онлайн бесплатно в хорошем качестве


    Вы не можете начинать темы
    Вы не можете отвечать на сообщения
    Вы не можете редактировать свои сообщения
    Вы не можете удалять свои сообщения
    Вы не можете голосовать в опросах
    Вы не можете прикреплять файлы к сообщениям
    Вы можете скачивать файлы