Ссылка на приватное зеркало всего за 1$. Внимание количество ограничено!!!

OK

1+1

iTunes

мы

OK

1

WEB-DLRip

Джокер

Пифагор

Ведьмак / The Witcher сериал

Лицензия

ПШазам

ОК

Оно 2

iTunes

30
pack

Вам бонус

ВАЖНО

!!Акция!!

Alien_RageХит недели

RePack

Resident Evil 21

ИГРА 18+

pack

RePack

jed

RePack

fifa19

RePack

Assassins Creed: Odyssey

RePack

NEED FOR SPEED™ PAYBACK

4 сезон

9 сезон

Бесстыжие 9 сезон

Все сериалы

все сериалы на PB.wtf

RePack

FAR CRY 5
  

Летающий корабль (Артур Войтецкий, Михаил Юферов) [1960, СССР, фэнтези, сказка, DVDRip от AVP Studio] pb.wtf

Летающий корабль через торрент pb.wtf

Размер: 743 MB | Добавлен: 1 год 8 мес. назад | Торрент скачан:26 раз
Скачать  

14-05-2018 09:08 Летающий корабль Скачать торрент  

Летающий корабль
Страна: СССР
Производство: Киностудия им. Довженко

Жанр: фэнтези, сказка
Год выпуска: 1960
Продолжительность: 01:03:44

Перевод: Не требуется
Cубтитры: нет
Оригинальная аудиодорожка: русский

Режиссер: Артур Войтецкий, Михаил Юферов

В ролях:
Игорь Ершов, Лариса Гордейчик, Ада Роговцева, Роберт Клявин, Владимир Дальский, Павел Шпрингфельд, Людмила Татьянчук, Валентина Калиновская, Зинаида Юрченко, Валентин Грудинин, Сергей Сибель, Дмитрий Гнатюк...
Об актёрах подробней

Описание:
По мотивам украинской народной сказки.
В приднепровском краю жил богатырь Котигорошко с сестренкой Аленкой. Страшный Змей украл Аленку и унес в свое змеиное царство. Вольные запорожцы выковали меч, дали живой воды и проводили Котигорошко в дальний путь. На летающем корабле прилетел он в змеиное царство, победил Змея, оживил сестренку, освободил всех невольников и вернулся в родные края.

Источник: DVD5 R5
Качество видео: DVDRip
Формат видео: AVI

Видео: 688х512 (4:3), 25 fps, XviD ~ 1237 kbps avg, 0.140 bit/pixel
Аудио: 48 kHz, Dolby Digital AC3 5.1, 384 kbps

Раздача от:
Общее
Полное имя : Letayushhiy.korabl.1960.DVDRip_[New-team]_by_AVP_Studio.avi
Формат : AVI
Формат/Информация : Audio Video Interleave
Размер файла : 743 Мбайт
Продолжительность : 1 ч. 3 м.
Общий поток : 1630 Кбит/сек
Программа кодирования : VirtualDubMod 1.5.10.3 | www.virtualdub-fr.org || (build 2550/release)
Библиотека кодирования : VirtualDubMod build 2550/release

Видео
Идентификатор : 0
Формат : MPEG-4 Visual
Профиль формата : Advanced Simple@L5
Настройки формата : BVOP1 / Custom Matrix
Параметр BVOP формата : 1
Параметр QPel формата : Нет
Параметр GMC формата : Без точки перехода
Параметр матрицы формата : Выборочная
Идентификатор кодека : XVID
Идентификатор кодека/Подсказка : XviD
Продолжительность : 1 ч. 3 м.
Битрейт : 1237 Кбит/сек
Ширина : 688 пикселей
Высота : 512 пикселей
Соотношение сторон : 4:3
Частота кадров : 25,000 кадров/сек
Цветовое пространство : YUV
Субдискретизация насыщенности : 4:2:0
Битовая глубина : 8 бит
Тип развёртки : Прогрессивная
Метод сжатия : С потерями
Бит/(Пиксели*Кадры) : 0.140
Размер потока : 564 Мбайт (76%)
Библиотека кодирования : XviD 73

Аудио
Идентификатор : 1
Формат : AC-3
Формат/Информация : Audio Coding 3
Идентификатор кодека : 2000
Продолжительность : 1 ч. 3 м.
Вид битрейта : Постоянный
Битрейт : 384 Кбит/сек
Каналы : 6 каналов
Расположение каналов : Front: L C R, Side: L R, LFE
Частота : 48,0 КГц
Частота кадров : 31,250 кадров/сек (1536 SPF)
Битовая глубина : 16 бит
Метод сжатия : С потерями
Размер потока : 175 Мбайт (24%)
Выравнивание : Разделение по промежуткам
Продолжительность промежутка : 40 мс. (1,00 видеокадр)
Время предзагрузки промежутка : 500 мс
pb.wtf



Скачать Летающий корабль через торрент http://picplus.ru/img/1805/13/f3d018a9.png Скачать фильм Летающий корабль через торрент бесплантно в хорошем качестве Описание:По мотивам украинской народной сказки.В приднепровском краю жил богатырь Котигорошко с сестренкой Аленкой. Страшный Змей украл ... 5 10 1
Info! Золотая раздача, скачанное не засчитывается.
Торрент: Зарегистрирован [2018-05-14 09:08] · скачан: 26 раз
Статус: √ проверено
Размер: 743 MB
Как cкачать? Как скачать Летающий корабль через торрент | qTorrent

% Раздел Тема Автор DL S | L
Детские отечественные фильмы [ 745 MB ] Летающий корабль [1960 СССР сказка DVDRip-AVC от AVP Studio] AVP Studio Скачать
1 | 0
Аниме [DVDrip, WEB-DLRip, HDrip] [ 894 MB ] Летающий корабль-призрак / Sora tobu yûreisen [1969 аниме мультфильм DVDRip DUB лицензия] jump88 Скачать
1 | 0
Детские отечественные фильмы [ 1.37 GB ] Летающий корабль [1960 DVDRip] DJERG Скачать
1 | 0

28-11-2019 20:33  

Отключить всю рекламу на сайте

    Дорогой пользователь! Огромная просьба, поблагодарите релизера, оцените раздачу и оставьте свои комментарий, если Вы скачали Летающий корабль через торрент бесплатно! Внесите свою лепту в развитие PiratBit!
    Комментировать посты могут только пользователи прошедшие не сложную регистрацию
    Показать сообщения:    

    Летающий корабль через торрент
    Скачать бесплатно Летающий корабль
    Летающий корабль скачать торрент
    Летающий корабль смотреть онлайн
    Cкачать фильм Летающий корабль бесплатно
    Летающий корабль скачать торрент в хорошем качестве
    Летающий корабль смотреть онлайн бесплатно в хорошем качестве


    Вы не можете начинать темы
    Вы не можете отвечать на сообщения
    Вы не можете редактировать свои сообщения
    Вы не можете удалять свои сообщения
    Вы не можете голосовать в опросах
    Вы не можете прикреплять файлы к сообщениям
    Вы можете скачивать файлы