Ссылка на приватное зеркало нашего сайта всего за 1$. Внимание количество ограничено!!!

2 сезон

iTunes

1 сезон

1

iTunes

iTunes

iTunes

1 сезон

RePack

30

ИГРА 18+

pack

ВАЖНО

!!Акция!!

Alien_RageХит недели

RePack

MK11
pack

Забери бонус

RePack

jed

!!Акция!!

Alien_Rage

RePack

fifa19

RePack

Assassins Creed: Odyssey

RePack

NEED FOR SPEED™ PAYBACK

4 сезон

9 сезон

Бесстыжие 9 сезон

Все сериалы

все сериалы на PB.wtf

RePack

FAR CRY 5
  

Восток-Запад / Восточные сладости / Сезон: 2 / Серии: 1-24 из 24 (Денис Елеонский) [2018, Мелодрама, SATRip] pb.wtf

Восток-Запад через торрент pb.wtf

Размер: 15.79 GB | Добавлен: 2 года 4 мес. назад | Торрент скачан:38 раз
Скачать  

14-05-2018 14:04 Восток-Запад Скачать торрент  

Восток-Запад / Восточные сладости
Год выпуска: 2018
Страна: Россия, Турция, Украина
Жанр: Мелодрама
Продолжительность: ~ 00:48:00
Субтитры: отсутствуют

Режиссер: Денис Елеонский



В ролях:

Евгения Лоза, Аднан Коч, Яков Кучеревский, Шенай Ба, Анна Варпаховская, Ольга Лукьяненко, Уйур Хакан Гюнери, Энгиз Озсайын, Алие Узунатаган, Дарья Южад, Наталья Кленина, Богдан Юсипчук, Полина Василина, Тимур Ибраимов, Алексан Четинкая, Ахтем Сейтаблаев, Хусейин Дилбер, Эркам Айдар, Мария Тарасова (II), Роман Выскребенцев

Описание:

Найдет ли Татьяна счастье в Турции или вернется на Родину? Кто отец её ребенка? Что делать со своей жизнью, когда она стремительно рушится?..

Качество: SATRip
Формат: AVI

Видео: XviD, ~ 1600 Кбит/с, 720x400
Аудио: MP3, 2 ch, 128 Кбит/с
скриншот  скриншот  скриншот  

Общее
Полное имя : E:\Vostok-Zapad (Season 02)\Vostok-Zapad.2-01.avi
Формат : AVI
Формат/Информация : Audio Video Interleave
Размер файла : 623 Мбайт
Продолжительность : 51 м. 33 с.
Общий поток : 1689 Кбит/сек
Программа кодирования : VirtualDubMod 1.5.10.3 (build 2550/release)
Библиотека кодирования : VirtualDubMod build 2550/release

Видео
Идентификатор : 0
Формат : MPEG-4 Visual
Профиль формата : Advanced Simple@L5
Настройки формата : BVOP2
Параметр BVOP формата : 2
Параметр QPel формата : Нет
Параметр GMC формата : Без точки перехода
Параметр матрицы формата : Default (H.263)
Идентификатор кодека : XVID
Идентификатор кодека/Подсказка : XviD
Продолжительность : 51 м. 33 с.
Битрейт : 1551 Кбит/сек
Ширина : 720 пикселей
Высота : 400 пикселей
Соотношение сторон : 16:9
Частота кадров : 25,000 кадров/сек
Цветовое пространство : YUV
Субдискретизация насыщенности : 4:2:0
Битовая глубина : 8 бит
Тип развёртки : Прогрессивная
Метод сжатия : С потерями
Бит/(Пиксели*Кадры) : 0.215
Размер потока : 572 Мбайт (92%)
Библиотека кодирования : XviD 1.2.1 (UTC 2008-12-04)

Аудио
Идентификатор : 1
Формат : MPEG Audio
Версия формата : Version 1
Профиль формата : Layer 3
Идентификатор кодека : 55
Идентификатор кодека/Подсказка : MP3
Продолжительность : 51 м. 33 с.
Вид битрейта : Постоянный
Битрейт : 128 Кбит/сек
Каналы : 2 канала
Частота : 48,0 КГц
Частота кадров : 41,667 кадра/сек (1152 SPF)
Метод сжатия : С потерями
Размер потока : 47,2 Мбайт (8%)
Выравнивание : Соединение по промежуткам
Продолжительность промежутка : 40 мс. (1,00 видеокадр)
Время предзагрузки промежутка : 504 мс.
Библиотека кодирования : LAME3.99r
Настройки программы : -m s -V 4 -q 2 -lowpass 17 -b 128

Внимание! Раздача ведётся путём добавления новых серий; при каждом добавлении создаётся новый торрент. Чтобы начать докачку новой серии, пользователям необходимо сделать следующее:
(1) остановить скачивание,
(2) удалить старый торрент у себя из клиента (старые серии удалять не надо),
(3) скачать новый торрент и запустить его у себя в клиенте вместо старого, при этом указать клиенту путь в старую папку куда и должно происходить скачивание новых серий.
Ваш клиент при этом должен произвести хеширование (проверку) старой папки (если не производит сам - помогите ему сделать это), и будет докачивать только те серии которых у вас ещё нет. Старые серии при этом не удаляются, а продолжают раздаваться!
Eсли вы уже удалили старые серии, то предотвратить повторную закачку старых серий можно, отжав галочку в соответствующих местах при запуске нового торрента. По возможности, желательно не удалять старые серии как можно дольше чтобы релизёр не столько продолжал раздавать старые серии, а смог сконцентрироваться на новых.
pb.wtf



Скачать Восток-Запад через торрент http://i104.fastpic.ru/big/2018/0515/c8/0dfbdee34ee2059f64bb9bb4a7295cc8.jpg Скачать фильм Восток-Запад через торрент бесплантно в хорошем качестве Описание: Найдет ли Татьяна счастье в Турции или вернется на Родину? Кто отец её ребенка? Что делать со своей жизнью, когда она ... 6.4 10 5
Info! Золотая раздача, скачанное не засчитывается.
Торрент: Зарегистрирован [2018-05-30 20:33] · скачан: 38 раз
Статус: √ проверено
Размер: 15.79 GB
Как cкачать? Как скачать Восток-Запад через торрент | qTorrent

% Раздел Тема Автор DL S | L
Наши сериалы [ 14.14 GB ] Восток-Запад / Восточные сладости / Сезон: 2 / Серии: 1-24 из 24 [2018 Мело WEB-DLRip] bober100 Скачать
1 | 0
Наши сериалы [ 30.09 GB ] Восток-Запад / Восточные сладости / Сезон: 2 / Серии: 1-24 из 24 [2018 Мело WEB-DL 720p] bober100 Скачать
1 | 0
Наши сериалы [ 14.64 GB ] Восток-Запад / Восточные сладости / Сезон: 2 / Серии: 1-24 из 24 [2018 Мело WEB-DLRip-AVC] bober100 Скачать
1 | 0


Последний раз редактировалось: bober100 (2018-05-30 20:33), всего редактировалось 7 раз(а)

28-11-2019 20:33  

Отключить всю рекламу на сайте

16-05-2018 06:23 Восток-Запад Скачать торрент  

Цитата:

Найдет ли Татьяна счастье в Турции? Кто отец её ребенка?

эпично-фэйлично...pb.wtf



    Дорогой пользователь! Огромная просьба, поблагодарите релизера, оцените раздачу и оставьте свои комментарий, если Вы скачали Восток-Запад через торрент бесплатно! Внесите свою лепту в развитие PiratBit!
    Комментировать посты могут только пользователи прошедшие не сложную регистрацию
    Показать сообщения:    

    Восток-Запад через торрент
    Скачать бесплатно Восток-Запад
    Восток-Запад скачать торрент
    Восток-Запад смотреть онлайн
    Cкачать фильм Восток-Запад бесплатно
    Восток-Запад скачать торрент в хорошем качестве
    Восток-Запад смотреть онлайн бесплатно в хорошем качестве


    Вы не можете начинать темы
    Вы не можете отвечать на сообщения
    Вы не можете редактировать свои сообщения
    Вы не можете удалять свои сообщения
    Вы не можете голосовать в опросах
    Вы не можете прикреплять файлы к сообщениям
    Вы можете скачивать файлы