новый адрес
Ссылка на приватное зеркало всего за 1$. Внимание количество ограничено!!!

iTunes

1+1

iTunes

мы

WEB-DL

1

iTunes

Чернобыль

iTunes

Ральф против интернета

Лицензия

ПШазам

Лицензия

Оно 2

Лицензия

30
pack

Вам бонус

ВАЖНО

!!Акция!!

Alien_RageХит недели

RePack

Resident Evil 21

ИГРА 18+

pack

RePack

jed

!!Акция!!

Alien_Rage

RePack

fifa19

RePack

Assassins Creed: Odyssey

RePack

NEED FOR SPEED™ PAYBACK

3 сезон

9 сезон

Бесстыжие 9 сезон

Все сериалы

все сериалы на PB.wtf

RePack

FAR CRY 5
Ребята, катастрофически не хватает 1900р. для оплаты серверов за Октябрь (всвязи с блокировками трафик упал в 3 раза), 1-2р., выручайте.
  

Супермошенники / Supercon (Зак Натсон) [2018, Комедия, WEB-DLRip] MVO [HDrezka Studio] pb.wtf

Супермошенники через торрент pb.wtf

Размер: 1.37 GB | Добавлен: 1 год 6 мес. назад | Торрент скачан:428 раз
Скачать  

14-05-2018 16:00 Супермошенники Скачать торрент  

Супермошенники / SuperconСтрана: США
Год выпуска: 2018
Жанр: Комедия
Продолжительность: 01:39:51
Перевод: Профессиональный (многоголосый) | HDRezka studio
Субтитры: отсутствуют

Режиссер: Зак Натсон

rating

В ролях:

Мэгги Грэйс, Клэнси Браун, Джон Малкович, Райан Квантен, Майк Эппс, Джош Перри, Дэна Снайдер, Расселл Питерс, Зак Натсон

Описание:

Группа вышедших в тираж телезвёзд зарабатывает участием в конвентах. Но мириться с таким положением вещей им надоедает, и компания решает обокрасть властного телепродюсера...

Качество: WEB-DLRip
Формат: AVI

Видео: 720x304 (2.35:1), 23.976 fps, XviD ~1 572 kbps avg
Аудио: 48.0 kHz, AC3 Dolby Digital, 2/0 (L,R) ch, ~384 kbps
скриншот   скриншот   скриншот   скриншот  

General
Complete name : Supercon (2018) WEB-DLRip.avi
Format : AVI
Format/Info : Audio Video Interleave
File size : 1.37 GiB
Duration : 1h 39mn
Overall bit rate : 1 965 Kbps
Writing application : VirtualDubMod 1.5.10.3 | (build 2550/release)
Writing library : VirtualDubMod build 2550/release

Video
ID : 0
Format : MPEG-4 Visual
Format profile : Advanced Simple@L5
Format settings, BVOP : 1
Format settings, QPel : No
Format settings, GMC : No warppoints
Format settings, Matrix : Custom
Codec ID : XVID
Codec ID/Hint : XviD
Duration : 1h 39mn
Bit rate : 1 572 Kbps
Width : 720 pixels
Height : 304 pixels
Display aspect ratio : 2.35:1
Frame rate : 23.976 fps
Color space : YUV
Chroma subsampling : 4:2:0
Bit depth : 8 bits
Scan type : Progressive
Compression mode : Lossy
Bits/(Pixel*Frame) : 0.299
Stream size : 1.10 GiB (80%)
Writing library : XviD 1.2.1 (UTC 2008-12-04)

Audio
ID : 1
Format : AC-3
Format/Info : Audio Coding 3
Mode extension : CM (complete main)
Format settings, Endianness : Big
Codec ID : 2000
Duration : 1h 39mn
Bit rate mode : Constant
Bit rate : 384 Kbps
Channel(s) : 2 channels
Channel positions : Front: L R
Sampling rate : 48.0 KHz
Compression mode : Lossy
Stream size : 274 MiB (20%)
Alignment : Split accross interleaves
Interleave, duration : 42 ms (1.00 video frame)
Interleave, preload duration : 500 ms

pb.wtf



Скачать Супермошенники через торрент http://pic1.kartinco.top/images/11/j3lfw.jpg Скачать фильм Супермошенники через торрент бесплантно в хорошем качестве Описание: Группа вышедших в тираж телезвёзд зарабатывает участием в конвентах. Но мириться с таким положением вещей им надоедает, и ... 8.7 10 14
Торрент: Зарегистрирован [2018-05-14 16:00] · скачан: 428 раз
Статус: T временная
Размер: 1.37 GB
Как cкачать? Как скачать Супермошенники через торрент | qTorrent

% Раздел Тема Автор DL S | L
T Фильмы (WEB-DL 720p, 1080p) [ 5 GB ] Супермошенники / Supercon [2018 WEB-DL 1080p] MVO PROCTOLOG Скачать
1 | 0

28-11-2019 20:33  

Отключить всю рекламу на сайте


14-05-2018 21:20 Супермошенники Скачать торрент  

1-скрин дед мороз и рокки бальбоа о чем то говорит. pb.wtf



15-05-2018 03:55 Супермошенники Скачать торрент  

Ждём Лицензииpb.wtf



    Дорогой пользователь! Огромная просьба, поблагодарите релизера, оцените раздачу и оставьте свои комментарий, если Вы скачали Супермошенники через торрент бесплатно! Внесите свою лепту в развитие PiratBit!
    Комментировать посты могут только пользователи прошедшие не сложную регистрацию
    Показать сообщения:    

    Супермошенники через торрент
    Скачать бесплатно Супермошенники
    Супермошенники скачать торрент
    Супермошенники смотреть онлайн
    Cкачать фильм Супермошенники бесплатно
    Супермошенники скачать торрент в хорошем качестве
    Супермошенники смотреть онлайн бесплатно в хорошем качестве


    Вы не можете начинать темы
    Вы не можете отвечать на сообщения
    Вы не можете редактировать свои сообщения
    Вы не можете удалять свои сообщения
    Вы не можете голосовать в опросах
    Вы не можете прикреплять файлы к сообщениям
    Вы можете скачивать файлы