Ссылка на приватное зеркало всего за 1$. Внимание количество ограничено!!!

iTunes

1+1

iTunes

мы

WEB-DL

1

iTunes

Чернобыль

iTunes

Ральф против интернета

Лицензия

ПШазам

Лицензия

Оно 2

Лицензия

30
pack

Вам бонус

ВАЖНО

!!Акция!!

Alien_RageХит недели

RePack

Resident Evil 21

ИГРА 18+

pack

RePack

jed

!!Акция!!

Alien_Rage

RePack

fifa19

RePack

Assassins Creed: Odyssey

RePack

NEED FOR SPEED™ PAYBACK

3 сезон

9 сезон

Бесстыжие 9 сезон

Все сериалы

все сериалы на PB.wtf

RePack

FAR CRY 5
Ребята, катастрофически не хватает 1900р. для оплаты серверов за Октябрь (всвязи с блокировками трафик упал в 3 раза), 1-2р., выручайте.
  

Богач / Le ruffian (Жозе Джованни) [1983 г., Приключения, DVDRip-AVC, Профессиональный (двухголосый)] от ExKinoRay pb.wtf

Богач через торрент pb.wtf

Размер: 1.87 GB | Добавлен: 1 год 7 мес. назад | Торрент скачан:25 раз
Скачать  

14-05-2018 16:53 Богач Скачать торрент  

Богач / Le ruffian
Год выпуска: 1983
Страна: Франция, Канада
Жанр: Приключения
Продолжительность: 01:43:23
Перевод: Профессиональный (двухголосый)

Режиссер: Жозе Джованни

Премьера в мире: 12 января 1983

rating

В ролях: Лино Вентура, Бернар Жирардо, Клаудия Кардинале, Беатрис Ван Тиль, Пьер Фраг, Аугуст Шелленберг

Описание: На золотой прииск в горах Канады совершено нападение. Одному из рабочих повезло больше других. Альдо удалось не только остаться в живых, но и избавиться от бандитов.
Теперь он спешит подальше от этого места, чтобы спрятать ящики с золотом, решив через месяц вернуться в эти глухие места вместе с друзьями и забрать сокровища, затопленные под водопадом. Но золото окажется непросто вернуть.

Качество: DVDRip-AVC
Формат: MKV
Видео кодек: MPEG4
Аудио кодек: AC3
Видео: MPEG-4 AVC, 2200 Кбит/с, 702x436@998x436, 25 кадров/сек
Аудио#1: Русский (AC3, 2 ch, 192 Кбит/с, 48 КГц)
Аудио#2: Французский (AC3, 1 ch, 192 Кбит/с, 48 КГц)
Релиз от:




raw [info]: 702x436p 64:45 @ 25/1 fps (cfr)
x264 [info]: using SAR=64/45
x264 [info]: using cpu capabilities: MMX2 SSE2Fast LZCNT
x264 [info]: profile High, level 4.1
x264 [info]: frame I:918 Avg QP:15.53 size: 63916
x264 [info]: frame P:34858 Avg QP:18.10 size: 23523
x264 [info]: frame B:119299 Avg QP:19.92 size: 6935
x264 [info]: consecutive B-frames: 2.0% 3.4% 11.5% 17.7% 11.1% 50.7% 2.6% 0.4% 0.3% 0.1% 0.0% 0.1% 0.0% 0.0% 0.0% 0.0% 0.1%
-----
Общее
Уникальный идентификатор : 249341305231064007167041865159153962665 (0xBB95637C0E9AF8199EF20D1514724EA9)
Полное имя : D:\ExKinoRay\6OGA4.1982.DVDRip-AVC.ExKinoRay.mkv
Формат : Matroska
Версия формата : Version 2
Размер файла : 1,87 Гбайт
Продолжительность : 1 ч. 43 м.
Общий поток : 2586 Кбит/сек
Дата кодирования : UTC 2018-05-14 13:53:08
Программа кодирования : mkvmerge v7.8.0 ('River Man') 32bit built on Apr 3 2015 12:11:22
Библиотека кодирования : libebml v1.3.1 + libmatroska v1.4.2

Видео
Идентификатор : 1
Формат : AVC
Формат/Информация : Advanced Video Codec
Профиль формата : High@L4.1
Параметр CABAC формата : Да
Параметр ReFrames формата : 14 кадров
Идентификатор кодека : V_MPEG4/ISO/AVC
Продолжительность : 1 ч. 43 м.
Битрейт : 2200 Кбит/сек
Ширина : 702 пикселя
Высота : 436 пикселей
Соотношение сторон : 2,25:1
Соотношение сторон в оригинале : 2,25:1
Режим частоты кадров : Постоянный
Частота кадров : 25,000 кадров/сек
Цветовое пространство : YUV
Субдискретизация насыщенности : 4:2:0
Битовая глубина : 8 бит
Тип развёртки : Прогрессивная
Бит/(Пиксели*Кадры) : 0.288
Размер потока : 1,55 Гбайт (83%)
Библиотека кодирования : x264 core 148 r2638 7599210
Настройки программы : cabac=1 / ref=14 / deblock=1:-2:-2 / analyse=0x3:0x133 / me=umh / subme=10 / psy=1 / psy_rd=1.05:0.15 / mixed_ref=1 / me_range=32 / chroma_me=1 / trellis=2 / 8x8dct=1 / cqm=0 / deadzone=21,11 / fast_pskip=0 / chroma_qp_offset=-3 / threads=4 / lookahead_threads=1 / sliced_threads=0 / nr=0 / decimate=0 / interlaced=0 / bluray_compat=0 / constrained_intra=0 / bframes=16 / b_pyramid=2 / b_adapt=2 / b_bias=0 / direct=3 / weightb=1 / open_gop=0 / weightp=2 / keyint=250 / keyint_min=25 / scenecut=40 / intra_refresh=0 / rc=2pass / mbtree=0 / bitrate=2200 / ratetol=1.0 / qcomp=0.60 / qpmin=0 / qpmax=69 / qpstep=4 / cplxblur=20.0 / qblur=0.5 / ip_ratio=1.40 / pb_ratio=1.30 / aq=1:1.00
Язык : English
Default : Да
Forced : Нет
Цветовой диапазон : Limited
Основные цвета : BT.601 NTSC
Характеристики трансфера : BT.601
Коэффициенты матрицы : BT.601

Аудио #1
Идентификатор : 2
Формат : AC-3
Формат/Информация : Audio Coding 3
Расширение режима : CM (complete main)
Параметр Endianness формата : Big
Идентификатор кодека : A_AC3
Продолжительность : 1 ч. 43 м.
Вид битрейта : Постоянный
Битрейт : 192 Кбит/сек
Каналы : 2 канала
Расположение каналов : Front: L R
Частота : 48,0 КГц
Частота кадров : 31,250 кадров/сек (1536 spf)
Метод сжатия : С потерями
Размер потока : 142 Мбайт (7%)
Язык : Russian
Default : Да
Forced : Нет

Аудио #2
Идентификатор : 3
Формат : AC-3
Формат/Информация : Audio Coding 3
Расширение режима : CM (complete main)
Параметр Endianness формата : Big
Идентификатор кодека : A_AC3
Продолжительность : 1 ч. 43 м.
Вид битрейта : Постоянный
Битрейт : 192 Кбит/сек
Каналы : 1 канал
Расположение каналов : Front: C
Частота : 48,0 КГц
Частота кадров : 31,250 кадров/сек (1536 spf)
Метод сжатия : С потерями
Размер потока : 142 Мбайт (7%)
Язык : French
Default : Нет
Forced : Нет

pb.wtf



Скачать Богач через торрент http://d.radikal.ru/d20/1805/da/a8270ea79b94.jpg Скачать фильм Богач через торрент бесплантно в хорошем качестве Описание: На золотой прииск в горах Канады совершено нападение. Одному из рабочих повезло больше других. Альдо удалось не только остаться в ... 9 10 4
Info! Золотая раздача, скачанное не засчитывается.
Торрент: Зарегистрирован [2018-05-14 16:53] · скачан: 25 раз
Статус: √ проверено
Размер: 1.87 GB
Как cкачать? Как скачать Богач через торрент | qTorrent

28-11-2019 20:33  

Отключить всю рекламу на сайте

15-05-2018 03:15 Богач Скачать торрент  

Топик был перенесен из форума Оформление раздач (Кино, Видео и ТВ) в форум Фильмы до 2000 г.


Enigma2010pb.wtf



17-05-2018 18:54 Богач Скачать торрент  

Приятный фильм, стоит посмотреть. Не ждите невероятных перестрелок, погонь и драк. Все это есть, но в умеренных количествах и в стилистике 80-х. Очень хорошие артисты. В описание вкралась ошибка. Одного из главных героев играет Бернар Жиродо, а не Жирардо. Он был талантливым и симпатичным человеком с большим мужеством и самообладанием. Действие происходит на фоне чудных пейзажей Британской Колумбии, что добавляет удовольствия. Качество видео и перевод хорошие, спасибо за раздачу.pb.wtf



    Дорогой пользователь! Огромная просьба, поблагодарите релизера, оцените раздачу и оставьте свои комментарий, если Вы скачали Богач через торрент бесплатно! Внесите свою лепту в развитие PiratBit!
    Комментировать посты могут только пользователи прошедшие не сложную регистрацию
    Показать сообщения:    

    Богач через торрент
    Скачать бесплатно Богач
    Богач скачать торрент
    Богач смотреть онлайн
    Cкачать фильм Богач бесплатно
    Богач скачать торрент в хорошем качестве
    Богач смотреть онлайн бесплатно в хорошем качестве


    Вы не можете начинать темы
    Вы не можете отвечать на сообщения
    Вы не можете редактировать свои сообщения
    Вы не можете удалять свои сообщения
    Вы не можете голосовать в опросах
    Вы не можете прикреплять файлы к сообщениям
    Вы можете скачивать файлы