Доктор Стрэндж

Лицензия

Добыча

MVO

Дом дракона

1 сезон

Тор

Лицензия

Мэверик

Лицензия

Там, где раки поют

MVO

Властелин колец

1 сезон

Ultimate

pack

Рекомендуем

30

Repack

ВАЖНО

ВАЖНО

Ghostwire

RePack

jed

RePack

nioh2

RePack

RDR2

RePack

NEED FOR SPEED™ PAYBACK

RePack

скачать торрент

Кинопоиск HD

Острые козырьки 6 сезон

6 сезон

FAR CRY 6

RePack

скачать торрент

Лицензия

скачать торрент

MVO

1

1 сезон

скачать торрент

1 сезон

скачать торрент

Лицензия

  

Бэтмен-ниндзя / Batman Ninja (Дзюнпэй Мидзусаки) [2018, аниме, мультфильм, боевик, фантастика, фэнтези, BDRip 1080p] [MVO] (HDrezka Studio)

Бэтмен-ниндзя через торрент pb.wtf

Размер: 7.39 GB | Добавлен: 4 года 4 мес. назад | Торрент скачан:101 раз
Смотреть онлайн | Скачать   

15-05-2018 07:26 Бэтмен-ниндзя Скачать торрент  

Бэтмен-ниндзя / Batman Ninja
Информация о фильме

Год выхода: 2018
Жанр: аниме, мультфильм, боевик, фантастика, фэнтези
Страна: Япония, США
Студия: DC Entertainment, Kamikaze Douga, Warner Bros. Animation
Продолжительность: 01:25:16
Перевод: Профессиональный (многоголосый) [HDrezka Studio]

Режиссер: Дзюнпэй Мидзусаки

В ролях: Коити Ямадэра, Ватару Такаги, Риэ Кугимия, Аи Какума, Хотю Оцука, Такэхито Коясу, Тосиюки Морикава, Кэнта Миякэ, Юити Нагасима, Кэнго Каваниси

О фильме:
Попав в поле действия машины времени, изобретенной Гориллой Гроддом, Бэтмен переносится в средневековую Японию. Там оказывается, что уже неплохо ояпонившиеся злодеи Готэма возглавляют отдельные княжества, и достигший определенного влияния Джокер наконец-то дождался прибытия своего главного врага. Но не все хотят смерти Брюса Уэйна — Женщина-кошка и верный слуга Альфред тоже с нетерпением ждали появления Бэтмена.



Файл

Кодек: h.264
Качество: BDRip 1080p
Видео: MPEG4-AVC, 10.5 Mбит/с, 1920x1080
Звук #1: AC3, 2 ch, 384 Кбит/с | Русский
Звук #2: DTS, 6 ch, 1509 Кбит/с | Английский
Субтитры: Английские
скриншот  скриншот  скриншот  
General
Unique ID : 194413113079848439764284799740023252732 (0x92429A85EFA211B4A2A7E1EC4305A6FC)
Complete name : F:\Batman.Ninja.2018.1080p.BDRip.mkv
Format : Matroska
Format version : Version 2
File size : 7.39 GiB
Duration : 1 h 25 min
Overall bit rate : 12.4 Mb/s
Movie name : www.rustorrent.pw
Encoded date : UTC 2018-05-15 04:20:00
Writing application : mkvmerge v7.8.0 ('River Man') 32bit built on Apr 3 2015 12:11:22
Writing library : libebml v1.3.1 + libmatroska v1.4.2

Video
ID : 1
Format : AVC
Format/Info : Advanced Video Codec
Format profile : [email protected]
Format settings : CABAC / 5 Ref Frames
Format settings, CABAC : Yes
Format settings, RefFrames : 5 frames
Codec ID : V_MPEG4/ISO/AVC
Duration : 1 h 25 min
Bit rate : 10.5 Mb/s
Width : 1 920 pixels
Height : 1 080 pixels
Display aspect ratio : 16:9
Frame rate mode : Constant
Frame rate : 23.976 (24000/1001) FPS
Color space : YUV
Chroma subsampling : 4:2:0
Bit depth : 8 bits
Scan type : Progressive
Bits/(Pixel*Frame) : 0.211
Stream size : 6.11 GiB (83%)
Writing library : x264 core 155 r2901 7d0ff22
Encoding settings : cabac=1 / ref=5 / deblock=1:-3:-3 / analyse=0x3:0x113 / me=umh / subme=10 / psy=1 / psy_rd=1.05:0.10 / mixed_ref=1 / me_range=48 / chroma_me=1 / trellis=2 / 8x8dct=1 / cqm=0 / deadzone=21,11 / fast_pskip=0 / chroma_qp_offset=-2 / threads=12 / lookahead_threads=1 / sliced_threads=0 / nr=0 / decimate=1 / interlaced=0 / bluray_compat=0 / constrained_intra=0 / bframes=6 / b_pyramid=2 / b_adapt=2 / b_bias=0 / direct=3 / weightb=1 / open_gop=0 / weightp=2 / keyint=250 / keyint_min=23 / scenecut=40 / intra_refresh=0 / rc=2pass / mbtree=0 / bitrate=10510 / ratetol=2.0 / qcomp=0.70 / qpmin=0 / qpmax=69 / qpstep=4 / cplxblur=20.0 / qblur=0.5 / ip_ratio=1.40 / pb_ratio=1.30 / aq=3:1.00
Default : Yes
Forced : No

Audio #1
ID : 2
Format : AC-3
Format/Info : Audio Coding 3
Format settings, Endianness : Big
Codec ID : A_AC3
Duration : 1 h 25 min
Bit rate mode : Constant
Bit rate : 384 kb/s
Channel(s) : 2 channels
Channel positions : Front: L R
Sampling rate : 48.0 kHz
Frame rate : 31.250 FPS (1536 SPF)
Bit depth : 16 bits
Compression mode : Lossy
Stream size : 234 MiB (3%)
Language : Russian
Service kind : Complete Main
Default : Yes
Forced : Yes

Audio #2
ID : 3
Format : DTS
Format/Info : Digital Theater Systems
Mode : 16
Format settings, Endianness : Big
Codec ID : A_DTS
Duration : 1 h 25 min
Bit rate mode : Constant
Bit rate : 1 509 kb/s
Channel(s) : 6 channels
Channel positions : Front: L C R, Side: L R, LFE
Sampling rate : 48.0 kHz
Frame rate : 93.750 FPS (512 SPF)
Bit depth : 24 bits
Compression mode : Lossy
Stream size : 920 MiB (12%)
Language : English
Default : No
Forced : No

Text
ID : 4
Format : UTF-8
Codec ID : S_TEXT/UTF8
Codec ID/Info : UTF-8 Plain Text
Language : English
Default : No
Forced : No

Menu
00:00:00.000 : en:00:00:00.000
00:08:32.345 : en:00:08:32.345
00:22:30.683 : en:00:22:30.683
00:31:12.537 : en:00:31:12.537
00:42:46.689 : en:00:42:46.689
00:51:34.425 : en:00:51:34.425
01:01:01.449 : en:01:01:01.449
01:12:15.831 : en:01:12:15.831
01:20:28.657 : en:01:20:28.657



Скачать Бэтмен-ниндзя через торрент https://c.radikal.ru/c20/1805/e4/c5668008fd67.jpg Скачать, смотреть онлайн Бэтмен-ниндзя бесплантно в хорошем качестве О фильме:Попав в поле действия машины времени, изобретенной Гориллой Гроддом, Бэтмен переносится в средневековую Японию. Там оказывается, ... 8.9 10 8
Info! Золотая раздача, скачанное не засчитывается.
Торрент: Зарегистрирован [2018-05-15 07:26] · скачан: 101 раз
Статус: √ проверено
Размер: 7.39 GB
Как cкачать? Как скачать Бэтмен-ниндзя через торрент | UTorrent

% Раздел Тема Автор DL S | L
Аниме [DVDrip, WEB-DLRip, HDrip] [ 1.37 GB ] Бэтмен-ниндзя / Batman Ninja | MVO | HDRip killermax2013 Скачать
1 | 0

28-11-2019 20:33  


Отключить вcю реклaмy на сайте, в т.ч. и в плеере онлайн просмотра!

17-07-2018 08:27 Бэтмен-ниндзя Скачать торрент  

Хааааах)))) Смеялся))) Японского-тупого пафоса здесь больше чем во всех аниме вместе взятых! Японцы, обсосы в этой сфере...) Лучше бы даже не замахивались на DC. Может кому то и понравится... это, но лично я дже не досмотрел. Плохо абсолютно все! В общем не советую, только время зря потратите...



    Дорогой пользователь! Огромная просьба, поблагодарите релизера, оцените раздачу и оставьте свои комментарий, если Вы скачали Бэтмен-ниндзя через торрент бесплатно!!
    Комментировать посты могут только пользователи прошедшие не сложную регистрацию
    Показать сообщения:    


    Бэтмен-ниндзя через торрент
    Скачать бесплатно Бэтмен-ниндзя
    Бэтмен-ниндзя скачать торрент
    Бэтмен-ниндзя смотреть онлайн
    Cкачать фильм Бэтмен-ниндзя бесплатно
    Бэтмен-ниндзя скачать торрент в хорошем качестве
    Бэтмен-ниндзя смотреть онлайн бесплатно в хорошем качестве
    Вы не можете начинать темы
    Вы не можете отвечать на сообщения
    Вы не можете редактировать свои сообщения
    Вы не можете удалять свои сообщения
    Вы не можете голосовать в опросах
    Вы не можете прикреплять файлы к сообщениям
    Вы можете скачивать файлы