2 сезон

iTunes

MVO

1

2 сезон

iTunes

iTunes

1 сезон

RePack

30

Новинка

ВАЖНО

ИГРА 18+

pack

RePack

MK11
pack

Легкие деньги

RePack

jed

RePack

fifa19

RePack

RDR2

RePack

NEED FOR SPEED™ PAYBACK

4 сезон

9 сезон

Бесстыжие 9 сезон

Все сериалы

все сериалы на PB.wtf

RePack

FAR CRY 5

Anonymous, добрый день, мы не успеваем собрать деньги на оплату серверов за декабрь и январь, помогите нам пожалуйста в это трудное время. В качестве благодарности мы отключим Вам всю рекламу на сайте (укажите свой ник в строку Ваше имя)!

×
  
Magnet ссылка

Лабиринт страха в 3Д / The Shock Labyrinth 3D (Такаши Шимицу / Takashi Shimizu) [2009, Ужасы, Триллер, BDrip, 1080p] OverUnder / Вертикальная стереопара pb.wtf

Лабиринт страха в 3Д через торрент pb.wtf

Размер: 22.62 GB | Добавлен: 2 года 8 мес. назад | Торрент скачан:15 раз
Скачать  

15-05-2018 14:34 Лабиринт страха в 3Д Скачать торрент  

Лабиринт страха / The Shock Labyrinth / Senritsu meikyû

Год выпуска: 2009
Страна: Япония
Жанр: Ужасы, Триллер
Продолжительность: 01:28:52

Перевод: Профессиональный многоголосый закадровый(Лицензия)
Русские субтитры: нет
Режиссер: Такаши Шимицу / Takashi Shimizu

В ролях: Юя Ягира, Мисако Ренбуцу, Рио Кацудзи, Ай Маэда, Эрина Мизуно, Сузуки Матсуо, Сойчиро Масумото

Описание: Компания подростков отправляется в парк аттракционов, чтобы весело провести время. В новом «Лабиринте Страха» происходит несчастный случай с одной из девочек, Юки. Испугавшись, одноклассники решили оставить ее там и забыть об этой истории. Спустя 10 лет Юки возвращается за их душами, чтобы отомстить…

Сэмпл: http://sendfile.su/1419423

Качество: BDrip, 1080p
Контейнер: MKV
Формат 3D: OverUnder / Вертикальная стереопара
Порядок ракурсов: левый ракурс первый
Видео кодек: x264
Аудио кодек: DTS
Видео: AVC / High@L5.0 / 23,976 fps / 1920х2160 / 34,2 Мбит/сек
Аудио: Русский / DTS / 48 KHz / 5.1 ch / 1510 Кбит/сек

ВНИМАНИЕ ! На встроенных ТВ-плеерах работать не будет!!!

ТВ Samsung в названии которого есть надпись Ultra HD , и LG Ultra HD 800 серии, LG C6P, Xiaomi Mi TV 2 воспроизводят полные стереопары встроенными плеерами
Железные плееры на которых воспроизводятся полные стереопары:Popcorn C-200 , Dune HD Smart D1 , Dune HD DUO , Dune HD Smart H1 , Dune HD Smart B1 , Dune HD Max , Dune HD TV-303D, Dune HD TV-102, Dune HD Base 3D, Philips HMP7001, Aura HD, MECOOL BB2
Чтобы изображение было на весь экран в плеере выставляем, если рип 1920х1600 - то выставляем 2.35:1 , если 1920х2160 - то выставляем 16:9
Общее
Уникальный идентификатор : 251153438260855427840473192322841335062 (0xBCF2648A7E456912B9818C6485665516)
Полное имя : F:\закачки\The Shock Labyrinth.Rip by SeRoGa00.mkv
Формат : Matroska
Версия формата : Version 2
Размер файла : 22,6 Гбайт
Продолжительность : 1 ч. 28 м.
Общий поток : 36,4 Мбит/сек
Дата кодирования : UTC 2018-05-15 13:43:39
Программа кодирования : mkvmerge v3.4.0 ('Rapunzel') сборка от May 15 2010 09:38:20
Библиотека кодирования : libebml v0.8.0 + libmatroska v0.9.0

Видео
Идентификатор : 1
Формат : AVC
Формат/Информация : Advanced Video Codec
Профиль формата : High@L5.0
Параметр CABAC формата : Да
Параметр ReFrames формата : 4 кадра
Идентификатор кодека : V_MPEG4/ISO/AVC
Продолжительность : 1 ч. 28 м.
Битрейт : 34,2 Мбит/сек
Ширина : 1920 пикселей
Высота : 2160 пикселей
Соотношение сторон : 0,889
Частота кадров : 23,976 кадра/сек
Цветовое пространство : YUV
Субдискретизация насыщенности : 4:2:0
Битовая глубина : 8 бит
Тип развёртки : Прогрессивная
Бит/(Пиксели*Кадры) : 0.344
Размер потока : 21,2 Гбайт (94%)
Заголовок : Rip by SeRoGa00
Библиотека кодирования : x264 core 155 r2901 7d0ff22
Настройки программы : cabac=1 / ref=4 / deblock=1:-3:-3 / analyse=0x3:0x113 / me=umh / subme=10 / psy=1 / psy_rd=1.00:0.15 / mixed_ref=1 / me_range=24 / chroma_me=1 / trellis=2 / 8x8dct=1 / cqm=0 / deadzone=21,11 / fast_pskip=1 / chroma_qp_offset=-3 / threads=12 / lookahead_threads=6 / sliced_threads=0 / nr=0 / decimate=0 / interlaced=0 / bluray_compat=0 / constrained_intra=0 / bframes=10 / b_pyramid=2 / b_adapt=2 / b_bias=0 / direct=3 / weightb=1 / open_gop=0 / weightp=2 / keyint=250 / keyint_min=23 / scenecut=40 / intra_refresh=0 / rc_lookahead=60 / rc=crf / mbtree=1 / crf=16.0 / qcomp=0.60 / qpmin=10 / qpmax=69 / qpstep=4 / vbv_maxrate=40000 / vbv_bufsize=40000 / crf_max=0.0 / nal_hrd=none / filler=0 / ip_ratio=1.40 / aq=1:1.00
Язык : English
Default : Нет
Forced : Нет

Аудио
Идентификатор : 2
Формат : DTS
Формат/Информация : Digital Theater Systems
Идентификатор кодека : A_DTS
Продолжительность : 1 ч. 28 м.
Вид битрейта : Постоянный
Битрейт : 1510 Кбит/сек
Каналы : 6 каналов
Расположение каналов : Front: L C R, Side: L R, LFE
Частота : 48,0 КГц
Битовая глубина : 24 бит
Метод сжатия : С потерями
Размер потока : 960 Мбайт (4%)
Язык : Russian
Default : Да
Forced : Нет
скриншот  

скриншот  

скриншот  

скриншот  

скриншот  

скриншот  
pb.wtf



Скачать Лабиринт страха в 3Д через торрент https://b.radikal.ru/b41/1805/08/e305fcc2d0e3.png Скачать фильм Лабиринт страха в 3Д через торрент бесплантно в хорошем качестве Описание: Компания подростков отправляется в парк аттракционов, чтобы весело провести время. В новом «Лабиринте Страха» происходит ... 6.3 10 3
Info! Золотая раздача, скачанное не засчитывается.
Торрент: Зарегистрирован [2018-05-15 14:34] · скачан: 15 раз
Статус: √ проверено
Размер: 22.62 GB
Как cкачать? Как скачать Лабиринт страха в 3Д через торрент | UTorrent

28-11-2019 20:33  

Отключить всю рекламу на сайте

    Дорогой пользователь! Огромная просьба, поблагодарите релизера, оцените раздачу и оставьте свои комментарий, если Вы скачали Лабиринт страха в 3Д через торрент бесплатно! Внесите свою лепту в развитие PiratBit!
    Комментировать посты могут только пользователи прошедшие не сложную регистрацию
    Показать сообщения:    

    Лабиринт страха в 3Д через торрент
    Скачать бесплатно Лабиринт страха в 3Д
    Лабиринт страха в 3Д скачать торрент
    Лабиринт страха в 3Д смотреть онлайн
    Cкачать фильм Лабиринт страха в 3Д бесплатно
    Лабиринт страха в 3Д скачать торрент в хорошем качестве
    Лабиринт страха в 3Д смотреть онлайн бесплатно в хорошем качестве


    Вы не можете начинать темы
    Вы не можете отвечать на сообщения
    Вы не можете редактировать свои сообщения
    Вы не можете удалять свои сообщения
    Вы не можете голосовать в опросах
    Вы не можете прикреплять файлы к сообщениям
    Вы можете скачивать файлы