Ссылка на приватное зеркало нашего сайта всего за 1$. Внимание количество ограничено!!!

2 сезон

iTunes

1 сезон

1

2 сезон

2 сезон

iTunes

1 сезон

RePack

30

Ultimate

ВАЖНО

ИГРА 18+

pack

RePack

MK11
pack

Забери бонус

RePack

jed

!!Акция!!

Alien_Rage

RePack

fifa19

RePack

Assassins Creed: Odyssey

RePack

NEED FOR SPEED™ PAYBACK

4 сезон

9 сезон

Бесстыжие 9 сезон

Все сериалы

все сериалы на PB.wtf

RePack

FAR CRY 5
  

Сладкая горечь / Sweetbitter / Сезон: 1 / Серии: 1-6 из 6 (Адам Бернштейн, Шерин Дабис, Шира Пивен) [2018, Драма, WEB-DL 720p] [MVO] (Jaskier) pb.wtf

Сладкая горечь через торрент pb.wtf

Размер: 4.08 GB | Добавлен: 1 год 4 мес. назад | Торрент скачан:9 раз
Скачать  

15-05-2018 15:21 Сладкая горечь Скачать торрент  

Сладкая горечь / Sweetbitter

Год выпуска: 2018
Страна: США
Жанр: Драма
Продолжительность: ~ 00:30:00
Перевод: Профессиональный (многоголосый закадровый) | Jaskier

Режиссёр: Адам Бернштейн, Шерин Дабис, Шира Пивен

В ролях: Эван Йоникит, Элла Пёрнелл, Данияр, Иден Эпштейн, Кэйтлин Фицджералд, Джимми Саито, Пол Спаркс, Том Стёрридж

Описание: В центре истории оказывается молодая девушка Тесс, которая, по приезду в Нью-Йорк, получает работу в одном из самых престижных ресторанов. Секс, наркотики и алкоголь мгновенно затягивают девушку в безумный водоворот...



Качество: WEB-DL 720p
Формат: MKV
Видео: X264, ~ 2300 kbps, 1280x720 (16:9), 23.976 fps
Аудио 1: AC3, 48,0 КГц, 6 ch, 384 kbps - Rus
Аудио 2: AC3, 48,0 КГц, 6 ch, 384 kbps - Eng
Субтитры: отсутствуют
Общее
Уникальный идентификатор                 : 222627290993739050308205386001843726722 (0xA77C74E4CDB6357AB1EFD9380C4BA982)
Формат                                   : Matroska
Версия формата                           : Version 2
Размер файла                             : 668 Мбайт
Продолжительность                        : 30 м.
Режим общего битрейта                    : Переменный
Общий поток                              : 3060 Кбит/сек
Дата кодирования                         : UTC 2018-05-09 17:28:19
Программа кодирования                    : mkvmerge v5.8.0 ('No Sleep / Pillow') built on Sep  2 2012 15:37:04
Библиотека кодирования                   : libebml v1.2.3 + libmatroska v1.3.0

Видео
Идентификатор                            : 1
Формат                                   : AVC
Формат/Информация                        : Advanced Video Codec
Профиль формата                          : High@L3.1
Параметр CABAC формата                   : Да
Параметр ReFrames формата                : 5 кадров
Идентификатор кодека                     : V_MPEG4/ISO/AVC
Продолжительность                        : 30 м.
Вид битрейта                             : Переменный
Битрейт                                  : 2231 Кбит/сек
Максимальный битрейт                     : 4500 Кбит/сек
Ширина                                   : 1280 пикселей
Высота                                   : 720 пикселей
Соотношение сторон                       : 16:9
Режим частоты кадров                     : Постоянный
Частота кадров                           : 23,976 (24000/1001) кадра/сек
Цветовое пространство                    : YUV
Субдискретизация насыщенности            : 4:2:0
Битовая глубина                          : 8 бит
Тип развёртки                            : Прогрессивная
Бит/(Пиксели*Кадры)                      : 0.101
Размер потока                            : 487 Мбайт (73%)
Default                                  : Да
Forced                                   : Нет
Цветовой диапазон                        : Limited
Основные цвета                           : BT.709
Характеристики трансфера                 : BT.709
Коэффициенты матрицы                     : BT.709

Аудио #1
Идентификатор                            : 2
Формат                                   : AC-3
Формат/Информация                        : Audio Coding 3
Расширение режима                        : CM (complete main)
Параметр Endianness формата              : Big
Идентификатор кодека                     : A_AC3
Продолжительность                        : 30 м.
Вид битрейта                             : Постоянный
Битрейт                                  : 384 Кбит/сек
Каналы                                   : 6 каналов
Расположение каналов                     : Front: L C R, Side: L R, LFE
Частота                                  : 48,0 КГц
Частота кадров                           : 31,250 кадров/сек (1536 spf)
Метод сжатия                             : С потерями
Размер потока                            : 83,8 Мбайт (13%)
Язык                                     : Russian
Default                                  : Да
Forced                                   : Нет

Аудио #2
Идентификатор                            : 3
Формат                                   : AC-3
Формат/Информация                        : Audio Coding 3
Расширение режима                        : CM (complete main)
Параметр Endianness формата              : Big
Идентификатор кодека                     : A_AC3
Продолжительность                        : 30 м.
Вид битрейта                             : Постоянный
Битрейт                                  : 384 Кбит/сек
Каналы                                   : 6 каналов
Расположение каналов                     : Front: L C R, Side: L R, LFE
Частота                                  : 48,0 КГц
Частота кадров                           : 31,250 кадров/сек (1536 spf)
Метод сжатия                             : С потерями
Размер потока                            : 83,8 Мбайт (13%)
Язык                                     : English
Default                                  : Нет
Forced                                   : Нет
скриншот  скриншот  скриншот  
pb.wtf



Скачать Сладкая горечь через торрент http://i105.fastpic.ru/big/2018/0509/2c/5e74673ccd5d1f886c0c69b456ad572c.png Скачать фильм Сладкая горечь через торрент бесплантно в хорошем качестве Описание: В центре истории оказывается молодая девушка Тесс, которая, по приезду в Нью-Йорк, получает работу в одном из самых престижных ... 6.7 10 11
Торрент: Зарегистрирован [2019-07-16 18:42] · скачан: 9 раз
Статус: √ проверено
Размер: 4.08 GB
Как cкачать? Как скачать Сладкая горечь через торрент | qTorrent

% Раздел Тема Автор DL S | L
Зарубежные сериалы [ 2.79 GB ] Сладкая горечь / Sweetbitter / Сезон: 1 / Серии: 1-6 из 6 [2018 WEB-DLRip] [MVO] killermax2013 Скачать
1 | 0
Зарубежные сериалы [ 2.06 GB ] Сладкая горечь / Sweetbitter / Сезон: 1 / Серии: 1-6 из 6 [2018 WEB-DLRip] MVO [NewStudio] bober100 Скачать
1 | 0

28-11-2019 20:33  

Отключить всю рекламу на сайте

    Дорогой пользователь! Огромная просьба, поблагодарите релизера, оцените раздачу и оставьте свои комментарий, если Вы скачали Сладкая горечь через торрент бесплатно! Внесите свою лепту в развитие PiratBit!
    Комментировать посты могут только пользователи прошедшие не сложную регистрацию
    Показать сообщения:    

    Сладкая горечь через торрент
    Скачать бесплатно Сладкая горечь
    Сладкая горечь скачать торрент
    Сладкая горечь смотреть онлайн
    Cкачать фильм Сладкая горечь бесплатно
    Сладкая горечь скачать торрент в хорошем качестве
    Сладкая горечь смотреть онлайн бесплатно в хорошем качестве


    Вы не можете начинать темы
    Вы не можете отвечать на сообщения
    Вы не можете редактировать свои сообщения
    Вы не можете удалять свои сообщения
    Вы не можете голосовать в опросах
    Вы не можете прикреплять файлы к сообщениям
    Вы можете скачивать файлы