Ссылка на приватное зеркало всего за 1$. Внимание количество ограничено!!!

iTunes

1+1

iTunes

мы

WEB-DL

1

iTunes

Чернобыль

iTunes

Ральф против интернета

Лицензия

ПШазам

Лицензия

Оно 2

Лицензия

30
pack

Вам бонус

ВАЖНО

!!Акция!!

Alien_RageХит недели

RePack

Resident Evil 21

ИГРА 18+

pack

RePack

jed

!!Акция!!

Alien_Rage

RePack

fifa19

RePack

Assassins Creed: Odyssey

RePack

NEED FOR SPEED™ PAYBACK

3 сезон

9 сезон

Бесстыжие 9 сезон

Все сериалы

все сериалы на PB.wtf

RePack

FAR CRY 5
Ребята, катастрофически не хватает 1900р. для оплаты серверов за Октябрь (всвязи с блокировками трафик упал в 3 раза), 1-2р., выручайте.
  

Самсон / Samson (Брюс МакДональд, Гэбриел Саблофф) [2018, Боевик, драма, BDRip-AVC] MVO [HDrezka Studio] - ExKinoRay pb.wtf

Самсон через торрент pb.wtf

Раздают: 1 [ 0 KB/s ]
Размер: 2.03 GB | Добавлен: 1 год 6 мес. назад | Торрент скачан:577 раз
Скачать  

15-05-2018 15:39 Самсон Скачать торрент  

Информация о фильме
Название: Самсон
Оригинальное название: Samson
Год выхода: 2018
Жанр: Боевик, драма
Страна: США, ЮАР
Студия: Pure Flix Productions, Boomtown films
Продолжительность: 01:49:49
Перевод: Профессиональный (многоголосый, закадровый) | HDrezka Studio
Режиссер: Брюс МакДональд, Гэбриел Саблофф
В ролях: Джексон Рэтбоун, Билли Зейн, Тейлор Джеймс, Рутгер Хауэр, Кэйтлин Лихи, Линдсей Вагнер, Фрэнсис Шолто-Дуглас, Грег Крик, Арес Афонсу, Рехане Абрахамс

Описание:
История жизни легендарного библейского героя Самсона, прославившегося своей необыкновенной силой и враждой с филистимлянами, древним народом, поработившим его соотечественников. Выросший в рабских условиях, он впоследствии доставил множество неприятностей своим поработителям, вызывая ужас одним только упоминанием собственного имени. И лишь предательство коварной искусительницы позволило взять верх над столь могущественным человеком, способным своими руками убить тысячу неприятелей.



Формат: MKV
Качество: BDRip-AVC
Видео: MPEG-4 AVC, 1024х436 (2.35:1), 23.976 fps, 2001 Kbps, 0.187 bit/pixel
Аудио #01: 48 kHz, AC3, 2.0, 192 Kbps | HDRezka Studio | RUS |
Аудио #02: 48 kHz, AC3, 5.1, 448 Kbps | Оригинал | ENG |
Субтитры: Английские
General
Unique ID : 188797622577207704821166864601013337722 (0x8E0919773281FF2BAD5CAB3A17B0BE7A)
Complete name : D:\Samson.2018.MVO.BDRip.AVC.ExKinoRay.mkv
Format : Matroska
Format version : Version 2
File size : 2.03 GiB
Duration : 1 h 49 min
Overall bit rate : 2 644 kb/s
Movie name : Samson 2018 from ExKinoRay
Encoded date : UTC 2018-05-15 12:08:59
Writing application : mkvmerge v5.6.0 ('Kenya Kane') built on May 27 2012 16:44:04
Writing library : libebml v1.2.3 + libmatroska v1.3.0

Video
ID : 1
Format : AVC
Format/Info : Advanced Video Codec
Format profile : High@L4.1
Format settings, CABAC : Yes
Format settings, ReFrames : 12 frames
Codec ID : V_MPEG4/ISO/AVC
Duration : 1 h 49 min
Bit rate : 2 001 kb/s
Width : 1 024 pixels
Height : 436 pixels
Display aspect ratio : 2.35:1
Frame rate mode : Constant
Frame rate : 23.976 (23976/1000) FPS
Color space : YUV
Chroma subsampling : 4:2:0
Bit depth : 8 bits
Scan type : Progressive
Bits/(Pixel*Frame) : 0.187
Stream size : 1.50 GiB (74%)
Writing library : x264 core 152 r2851 ba24899
Encoding settings : cabac=1 / ref=12 / deblock=1:-2:-3 / analyse=0x3:0x113 / me=umh / subme=10 / psy=1 / psy_rd=1.05:0.10 / mixed_ref=1 / me_range=32 / chroma_me=1 / trellis=2 / 8x8dct=1 / cqm=0 / deadzone=21,11 / fast_pskip=0 / chroma_qp_offset=-3 / threads=12 / lookahead_threads=3 / sliced_threads=0 / nr=0 / decimate=0 / interlaced=0 / bluray_compat=0 / constrained_intra=0 / bframes=12 / b_pyramid=2 / b_adapt=2 / b_bias=0 / direct=3 / weightb=1 / open_gop=0 / weightp=2 / keyint=240 / keyint_min=23 / scenecut=40 / intra_refresh=0 / rc_lookahead=40 / rc=2pass / mbtree=0 / bitrate=2001 / ratetol=1.0 / qcomp=0.60 / qpmin=0 / qpmax=51 / qpstep=4 / cplxblur=20.0 / qblur=0.5 / vbv_maxrate=50000 / vbv_bufsize=62500 / nal_hrd=none / filler=0 / ip_ratio=1.40 / pb_ratio=1.30 / aq=3:0.90
Language : English
Default : Yes
Forced : No
Color range : Limited
Color primaries : BT.709
Transfer characteristics : BT.709
Matrix coefficients : BT.709

Audio #1
ID : 2
Format : AC-3
Format/Info : Audio Coding 3
Mode extension : CM (complete main)
Format settings, Endianness : Big
Codec ID : A_AC3
Duration : 1 h 49 min
Bit rate mode : Constant
Bit rate : 192 kb/s
Channel(s) : 2 channels
Channel positions : Front: L R
Sampling rate : 44.1 kHz
Frame rate : 28.711 FPS (1536 spf)
Compression mode : Lossy
Stream size : 151 MiB (7%)
Title : MVO
Language : Russian
Default : Yes
Forced : No

Audio #2
ID : 3
Format : AC-3
Format/Info : Audio Coding 3
Mode extension : CM (complete main)
Format settings, Endianness : Big
Codec ID : A_AC3
Duration : 1 h 49 min
Bit rate mode : Constant
Bit rate : 448 kb/s
Channel(s) : 6 channels
Channel positions : Front: L C R, Side: L R, LFE
Sampling rate : 48.0 kHz
Frame rate : 31.250 FPS (1536 spf)
Compression mode : Lossy
Stream size : 352 MiB (17%)
Language : English
Default : No
Forced : No

Text
ID : 4
Format : UTF-8
Codec ID : S_TEXT/UTF8
Codec ID/Info : UTF-8 Plain Text
Language : English
Default : No
Forced : No

Menu
00:00:00.000 : en:Chapter 01
00:06:41.734 : en:Chapter 02
00:11:48.457 : en:Chapter 03
00:18:16.553 : en:Chapter 04
00:23:02.839 : en:Chapter 05
00:27:37.864 : en:Chapter 06
00:34:25.396 : en:Chapter 07
00:39:57.645 : en:Chapter 08
00:45:58.338 : en:Chapter 09
00:50:00.163 : en:Chapter 10
00:56:08.406 : en:Chapter 11
00:59:57.552 : en:Chapter 12
01:04:12.306 : en:Chapter 13
01:07:47.772 : en:Chapter 14
01:15:15.010 : en:Chapter 15
01:19:27.929 : en:Chapter 16
01:24:55.131 : en:Chapter 17
01:30:47.733 : en:Chapter 18
01:37:25.214 : en:Chapter 19
01:44:22.673 : en:Chapter 20
Релиз от:

Автор релиза: pb.wtf



Скачать Самсон через торрент http://c.radikal.ru/c36/1805/4f/74b9100331f7.jpg Скачать фильм Самсон через торрент бесплантно в хорошем качестве Описание:История жизни легендарного библейского героя Самсона, прославившегося своей необыкновенной силой и враждой с филистимлянами, ... 8.5 10 18
Info! Золотая раздача, скачанное не засчитывается.
Торрент: Зарегистрирован [2018-05-15 15:39] · скачан: 577 раз
Статус: T временная
Размер: 2.03 GB
Как cкачать? Как скачать Самсон через торрент | qTorrent

28-11-2019 20:33  

Отключить всю рекламу на сайте

15-05-2018 16:28 Самсон Скачать торрент  

молодой круз кастилиоpb.wtf



15-05-2018 17:51 Самсон Скачать торрент  

хрень какая тоpb.wtf



16-05-2018 02:59 Самсон Скачать торрент  

vad111 писал(а):

хрень какая то

полностью согласенpb.wtf



16-05-2018 10:59 Самсон Скачать торрент  

ЕРУНДЕНЬ !pb.wtf



17-05-2018 09:55 Самсон Скачать торрент  

Фильм понравился. Много достоинств- удачный выбор артистов, реалистичные локации без перебора экзотики и пышности, хорошие костюмы, сцены боев без китайской хореографии. Брюс МакДональд вообще находка для жанра, неожиданно сильная игра Билли Зейна, Кэйтлин Лихи удачно сыграла Далилу. Выгодно отличается от большинства исторических фильмов корректным отношением к исходному материалу, отсутствием разнузданных фантазий безграмотного подростка. Вполне корректно и отношение к религии. Если посчитаете, что фантазия сценаристов все же разыгралась, прочитайте или прослушайте интересный роман Владимира Жаботинского (выдающегося деятеля сионизма, следовательно человека, который не мог безответственно относится к ветхозаветной истории) *Самсон назорей*. Есть, однако, и большая ложь. Во времена Самсона и иудеи и филистимляне были пришлыми захватчиками в земле хананеев, оба народа эксплуатировали и презирали аборигенов (См. Книгу судей). Те, кому фильм не понравился, наверное ожидали чего то более зрелищного и легкого. Качество рипа очень хорошее, спасибо за раздачу.pb.wtf



    Дорогой пользователь! Огромная просьба, поблагодарите релизера, оцените раздачу и оставьте свои комментарий, если Вы скачали Самсон через торрент бесплатно! Внесите свою лепту в развитие PiratBit!
    Комментировать посты могут только пользователи прошедшие не сложную регистрацию
    Показать сообщения:    

    Самсон через торрент
    Скачать бесплатно Самсон
    Самсон скачать торрент
    Самсон смотреть онлайн
    Cкачать фильм Самсон бесплатно
    Самсон скачать торрент в хорошем качестве
    Самсон смотреть онлайн бесплатно в хорошем качестве


    Вы не можете начинать темы
    Вы не можете отвечать на сообщения
    Вы не можете редактировать свои сообщения
    Вы не можете удалять свои сообщения
    Вы не можете голосовать в опросах
    Вы не можете прикреплять файлы к сообщениям
    Вы можете скачивать файлы