Всегда рабочее зеркало без VPN и Proxy просто перед .vidak.icu напиши любое слово или цифру, Пример http://vaeu.vidak.icu

Лицензия

MVO

1 сезон

1

1 сезон

iTunes

1 сезон

13

1 сезон

Deluxe

pack

Рекомендуем

Repack

30

ВАЖНО

RePack

MK11

RePack

jed

RePack

fifa19

RePack

RDR2

RePack

NEED FOR SPEED™ PAYBACK

Кинопоиск HD

6 сезон

 Острые козырьки 6 сезон

Все сериалы

все сериалы на PB.wtf

RePack

FAR CRY 5
  
Magnet ссылка

Ночной беглец / Run All Night (Жаума Кольет-Серра) [2015, боевик, криминал, драма, UHD WEBRip 2160p] DUB + 3xAVO pb.wtf

Ночной беглец через торрент pb.wtf

Размер: 28.24 GB | Добавлен: 4 года 3 мес. назад | Торрент скачан:20 раз
Смотреть онлайн Ночной беглец | Скачать    Ребята, помогите собрать деньги на оплату серверов!!!

16-05-2018 03:41 Ночной беглец Скачать торрент  

Ночной беглец / Run All Night«Одна ночь, чтобы свести счёты»
Год выпуска: 2015
Страна: США
Жанр: боевик, криминал, драма
Продолжительность: 01:54:21
Перевод: Дублированный, авторский
Субтитры: Русские, английские, украинские
Режиссер: Жаума Кольет-Серра
В ролях:

Лиам Нисон (Jimmy Conlon), Юэль Киннаман (Mike Conlon), Коммон (Andrew Price), Эд Харрис (Shawn Maguire), Бойд Холбрук (Danny Maguire), Брюс МакГилл (Pat Mullen), Дженезис Родригез (Gabriela Conlon), Винсент Д’Онофрио (Detective John Harding), Лоис Смит (Margaret Conlon), Бо Напп (Kenan Boyle), Патриция Кэлембер (Rose Maguire), Дэниэл Стюарт-Шерман (Brendan)
Описание:
Фильм расскажет историю киллера, вступившего в конфликт с бывшим боссом и в итоге вынужденного пуститься в бега, чтобы защитить свою семью от преследования мафией и властями.
Рейтинг:

MPAA: R - Лицам до 17 лет обязательно присутствие взрослого
Качество: UHD WEBRip 2160p
Формат: MKV
Видео: HEVC, 27.4 Mбит/с, 3840x1600
Аудио #1: Русский: AC3, 5.1, 48 kHz, 640 Кбит/с | Профессиональный (полное дублирование) BD EUR |
Аудио #2: Русский: AC3, 5.1, 48 kHz, 640 Кбит/с | Авторский (одноголосый, закадровый) А. Гаврилов | *thx dalemake*
Аудио #3: Русский: AC3, 5.1, 48 kHz, 640 Кбит/с | Одноголосый (закадровый) М. Яроцкий |
Аудио #4: Русский: AC3, 5.1, 48 kHz, 640 Кбит/с | Одноголосый (закадровый) Д. Есарев |
Аудио #5: Английский: DTS-HD MA, 8 ch, 4749 Кбит/с
Аудио #6: Французкий: AC3, 6 ch, 640 Кбит/с
Навигация по главам: есть
Общее
Уникальный идентификатор : 65108842402289651706139240311452885951 (0x30FB81C5AF907EFB9DBE7799AA3863BF)
Полное имя : Run.All.Night.2015.2160p.HDR.WEBRip.DTS-HD.MA.7.1.EN.FR.x265.mkv
Формат : Matroska
Версия формата : Version 4 / Version 2
Размер файла : 28,2 Гбайт
Продолжительность : 1 ч. 54 м.
Общий поток : 35,3 Мбит/сек
Дата кодирования : UTC 2018-05-11 18:12:28
Программа кодирования : mkvmerge v23.0.0 ('The Bride Said No') 64-bit
Библиотека кодирования : libebml v1.3.6 + libmatroska v1.4.9

Видео
Идентификатор : 1
Формат : HEVC
Формат/Информация : High Efficiency Video Coding
Коммерческое название : HDR10
Профиль формата : Main [email protected]@Main
Идентификатор кодека : V_MPEGH/ISO/HEVC
Продолжительность : 1 ч. 54 м.
Битрейт : 27,4 Мбит/сек
Ширина : 3840 пикселей
Высота : 1600 пикселей
Соотношение сторон : 2,40:1
Режим частоты кадров : Постоянный
Частота кадров : 23,976 (24000/1001) кадра/сек
Цветовое пространство : YUV
Субдискретизация насыщенности : 4:2:0
Битовая глубина : 10 бит
Бит/(Пиксели*Кадры) : 0.186
Размер потока : 21,9 Гбайт (77%)
Default : Да
Forced : Нет
Цветовой диапазон : Limited
Основные цвета : BT.2020
Характеристики трансфера : PQ
Коэффициенты матрицы : BT.2020 non-constant
MasteringDisplay_ColorPrimaries : BT.709
MasteringDisplay_Luminance : min: 0.0050 cd/m2, max: 1000 cd/m2

Аудио #1
Идентификатор : 2
Формат : AC-3
Формат/Информация : Audio Coding 3
Идентификатор кодека : A_AC3
Продолжительность : 1 ч. 54 м.
Вид битрейта : Постоянный
Битрейт : 640 Кбит/сек
Каналы : 6 каналов
Расположение каналов : Front: L C R, Side: L R, LFE
Частота : 48,0 КГц
Частота кадров : 31,250 кадров/сек (1536 SPF)
Битовая глубина : 16 бит
Метод сжатия : С потерями
Задержка видео : -1 с. 500 мс.
Размер потока : 523 Мбайт (2%)
Заголовок : Дубляж, Blu-ray CEE
Язык : Russian
ServiceKind/String : Complete Main
Default : Нет
Forced : Нет

Аудио #2
Идентификатор : 3
Формат : AC-3
Формат/Информация : Audio Coding 3
Идентификатор кодека : A_AC3
Продолжительность : 1 ч. 54 м.
Вид битрейта : Постоянный
Битрейт : 640 Кбит/сек
Каналы : 6 каналов
Расположение каналов : Front: L C R, Side: L R, LFE
Частота : 48,0 КГц
Частота кадров : 31,250 кадров/сек (1536 SPF)
Битовая глубина : 16 бит
Метод сжатия : С потерями
Задержка видео : -1 с. 500 мс.
Размер потока : 523 Мбайт (2%)
Заголовок : Одноголосый закадровый, А.Гаврилов
Язык : Russian
ServiceKind/String : Complete Main
Default : Нет
Forced : Нет

Аудио #3
Идентификатор : 4
Формат : AC-3
Формат/Информация : Audio Coding 3
Идентификатор кодека : A_AC3
Продолжительность : 1 ч. 54 м.
Вид битрейта : Постоянный
Битрейт : 640 Кбит/сек
Каналы : 6 каналов
Расположение каналов : Front: L C R, Side: L R, LFE
Частота : 48,0 КГц
Частота кадров : 31,250 кадров/сек (1536 SPF)
Битовая глубина : 16 бит
Метод сжатия : С потерями
Задержка видео : -1 с. 500 мс.
Размер потока : 523 Мбайт (2%)
Заголовок : Одноголосый закадровый, Д.Есарев
Язык : Russian
ServiceKind/String : Complete Main
Default : Нет
Forced : Нет

Аудио #4
Идентификатор : 5
Формат : AC-3
Формат/Информация : Audio Coding 3
Идентификатор кодека : A_AC3
Продолжительность : 1 ч. 54 м.
Вид битрейта : Постоянный
Битрейт : 640 Кбит/сек
Каналы : 6 каналов
Расположение каналов : Front: L C R, Side: L R, LFE
Частота : 48,0 КГц
Частота кадров : 31,250 кадров/сек (1536 SPF)
Битовая глубина : 16 бит
Метод сжатия : С потерями
Задержка видео : -1 с. 500 мс.
Размер потока : 523 Мбайт (2%)
Заголовок : Одноголосый закадровый, М.Яроцкий
Язык : Russian
ServiceKind/String : Complete Main
Default : Нет
Forced : Нет

Аудио #5
Идентификатор : 6
Формат : DTS
Формат/Информация : Digital Theater Systems
Профиль формата : MA / Core
Идентификатор кодека : A_DTS
Продолжительность : 1 ч. 54 м.
Вид битрейта : Переменный / Постоянный
Битрейт : 4749 Кбит/сек / 1509 Кбит/сек
Каналы : 8 каналов / 6 каналов
Расположение каналов : Front: L C R, Side: L R, Back: L R, LFE / Front: L C R, Side: L R, LFE
Частота : 48,0 КГц
Частота кадров : 93,750 кадра/сек (512 SPF)
Битовая глубина : 24 бит
Метод сжатия : Без потерь / Lossy
Задержка видео : 5 мс.
Размер потока : 3,79 Гбайт (13%)
Язык : English
Default : Да
Forced : Нет

Аудио #6
Идентификатор : 7
Формат : AC-3
Формат/Информация : Audio Coding 3
Идентификатор кодека : A_AC3
Продолжительность : 1 ч. 54 м.
Вид битрейта : Постоянный
Битрейт : 640 Кбит/сек
Каналы : 6 каналов
Расположение каналов : Front: L C R, Side: L R, LFE
Частота : 48,0 КГц
Частота кадров : 31,250 кадров/сек (1536 SPF)
Битовая глубина : 16 бит
Метод сжатия : С потерями
Задержка видео : -1 с. 485 мс.
Размер потока : 523 Мбайт (2%)
Заголовок : VFQ
Язык : French
ServiceKind/String : Complete Main
Default : Нет
Forced : Нет

Текст #1
Идентификатор : 8
Формат : UTF-8
Идентификатор кодека : S_TEXT/UTF8
Идентификатор кодека/Информация : UTF-8 Plain Text
Продолжительность : 1 ч. 52 м.
Битрейт : 1 бит/сек
ElementCount : 23
Размер потока : 945 байт (0%)
Заголовок : Russian (Forced)
Язык : Russian
Default : Да
Forced : Нет

Текст #2
Идентификатор : 9
Формат : UTF-8
Идентификатор кодека : S_TEXT/UTF8
Идентификатор кодека/Информация : UTF-8 Plain Text
Продолжительность : 1 ч. 53 м.
Битрейт : 76 бит/сек
ElementCount : 1187
Размер потока : 63,5 Кбайт (0%)
Заголовок : Russian
Язык : Russian
Default : Нет
Forced : Нет

Текст #3
Идентификатор : 10
Формат : UTF-8
Идентификатор кодека : S_TEXT/UTF8
Идентификатор кодека/Информация : UTF-8 Plain Text
Продолжительность : 1 ч. 52 м.
Битрейт : 0 бит/сек
ElementCount : 23
Размер потока : 823 байт (0%)
Заголовок : Ukrainian (Forced)
Язык : Ukrainian
Default : Нет
Forced : Нет

Текст #4
Идентификатор : 11
Формат : UTF-8
Идентификатор кодека : S_TEXT/UTF8
Идентификатор кодека/Информация : UTF-8 Plain Text
Продолжительность : 1 ч. 53 м.
Битрейт : 72 бит/сек
ElementCount : 1182
Размер потока : 60,2 Кбайт (0%)
Заголовок : Ukrainian
Язык : Ukrainian
Default : Нет
Forced : Нет

Текст #5
Идентификатор : 12
Формат : UTF-8
Идентификатор кодека : S_TEXT/UTF8
Идентификатор кодека/Информация : UTF-8 Plain Text
Продолжительность : 1 ч. 47 м.
Битрейт : 54 бит/сек
ElementCount : 1176
Размер потока : 42,7 Кбайт (0%)
Заголовок : English
Язык : English
Default : Нет
Forced : Нет

Текст #6
Идентификатор : 13
Формат : UTF-8
Идентификатор кодека : S_TEXT/UTF8
Идентификатор кодека/Информация : UTF-8 Plain Text
Продолжительность : 1 ч. 47 м.
Битрейт : 58 бит/сек
ElementCount : 1301
Размер потока : 45,9 Кбайт (0%)
Заголовок : English (SDH)
Язык : English
Default : Нет
Forced : Нет

Текст #7
Идентификатор : 14
Формат : UTF-8
Идентификатор кодека : S_TEXT/UTF8
Идентификатор кодека/Информация : UTF-8 Plain Text
Продолжительность : 1 ч. 48 м.
Битрейт : 66 бит/сек
ElementCount : 1302
Размер потока : 52,6 Кбайт (0%)
Заголовок : English (SDH Colored)
Язык : English
Default : Нет
Forced : Нет

Меню
00:00:00.000 : en:Chapter 01
00:09:02.750 : en:Chapter 02
00:20:32.231 : en:Chapter 03
00:29:24.220 : en:Chapter 04
00:41:17.308 : en:Chapter 05
00:50:29.776 : en:Chapter 06
01:01:35.900 : en:Chapter 07
01:10:56.585 : en:Chapter 08
01:19:52.078 : en:Chapter 09
01:34:14.398 : en:Chapter 10
01:39:08.609 : en:Chapter 11
01:48:38.386 : en:Chapter 12
pb.wtf



Скачать Ночной беглец через торрент https://d.radikal.ru/d17/1805/44/a9dadd3c760d.png Скачать, смотреть онлайн Ночной беглец бесплантно в хорошем качестве Описание: Фильм расскажет историю киллера, вступившего в конфликт с бывшим боссом и в итоге вынужденного пуститься в бега, чтобы защитить ... 10 10 2
Info! Золотая раздача, скачанное не засчитывается.
Торрент: Зарегистрирован [2018-05-16 03:41] · скачан: 20 раз
Статус: √ проверено
Размер: 28.24 GB
Как cкачать? Как скачать Ночной беглец через торрент | UTorrent

28-11-2019 20:33  

Отключить вcю реклaмy на сайте

    Дорогой пользователь! Огромная просьба, поблагодарите релизера, оцените раздачу и оставьте свои комментарий, если Вы скачали Ночной беглец через торрент бесплатно!
    Комментировать посты могут только пользователи прошедшие не сложную регистрацию
    Показать сообщения:    

    Ночной беглец через торрент
    Скачать бесплатно Ночной беглец
    Ночной беглец скачать торрент
    Ночной беглец смотреть онлайн
    Cкачать фильм Ночной беглец бесплатно
    Ночной беглец скачать торрент в хорошем качестве
    Ночной беглец смотреть онлайн бесплатно в хорошем качестве


    Вы не можете начинать темы
    Вы не можете отвечать на сообщения
    Вы не можете редактировать свои сообщения
    Вы не можете удалять свои сообщения
    Вы не можете голосовать в опросах
    Вы не можете прикреплять файлы к сообщениям
    Вы можете скачивать файлы