Anonymous, доброй ночи, присоединяйтесь к нам в Telegram!, здесь всегда актуальный адрес сайта, оперативная поддержка и многое другое!

>

5.6

iTunes

7.4

MVO

5.7

MVO

1

7.7

1 сезон

6.8

iTunes

7.3

1 сезон

13

6.7

1 сезон

8.3

RePack

30

ULTIMATE

pack

9.9

Лицензия

ВАЖНО

ИГРА 18+

pack

7.3

RePack

MK11

7.7

RePack

jed

7.8

RePack

fifa19

8.5

RePack

RDR2

RePack

NEED FOR SPEED™ PAYBACK

4 сезон

9 сезон

Бесстыжие 9 сезон

Все сериалы

все сериалы на PB.wtf

RePack

FAR CRY 5

Anonymous, доброй ночи, мы катастрофически не успеваем собрать деньги на оплату серверов, помогите нам пожалуйста 5,10,15р., для нас важна любая помощь . В качестве благодарности мы отключим Вам всю рекламу на сайте (укажите свой ник в строку Ваше имя)!

×
  
Magnet ссылка

СашаТаня / Сезон: 6 / Серии: 1-11 из 11 + Фильм о фильме (Михаил Старчак) [2018, Ситком, комедия, HDTV 1080i] pb.wtf

СашаТаня через торрент pb.wtf

Размер: 14.82 GB | Добавлен: 3 года 4 мес. назад | Торрент скачан:102 раза
Смотреть онлайн СашаТаня | Скачать    Ребята, помогите собрать деньги на оплату серверов!!!

16-05-2018 04:56 СашаТаня Скачать торрент  

СашаТаняГод выпуска: 2018
Страна: Россия
Жанр: Ситком, комедия
Продолжительность: ~ 00:21:03
Перевод: Не требуется
Субтитры: отсутствуют

Режиссер: Михаил Старчак



В ролях:

Андрей Гайдулян, Валентина Рубцова, Алексей Климушкин, Елена Бирюкова, Татьяна Орлова, Андрей Лебедев, Ксения Хаирова, Олег Новиков, Сергей Рудзевич, Сергей Мурзин, Андрей Свиридов, Павел Кассинский, Виталий Гогунский, Арарат Кещян, Ёлка, Алексей Гаврилов, Лариса Баранова, Алина Кизиярова-Ланина, Екатерина Шукшина, Владимир Епифанцев

Описание:

Смерившись с ипотекой, детским садиком и надоевшим папашей-олигархом, чете Сергеевых станет невыносимо скучно. Настолько, что они обзаведутся новым «ребенком». Кавычки здесь потому, что ребенок этот будет не родной, и даже не приемный. Из некоего города Озерки в Москву нагрянет двоюродная сестра Тани 18-летняя Катя, которая станет для Сергеевых большой и очень симпатичной обузой. Сестренка оказалась девушкой видной, поэтому Саша, положив на нее свой отеческий «надзор», моментально поведет знакомить провинциалку с московскими прелестями: Красной Площадью, Кремлем, ГУМом и другими столичными соблазнами. В общем, не было у Сергеевых забот. Но одной Катеньки для полного «счастья» Саше и Тане будет маловато, поэтому в новых сериях Саша пройдет тест на сексуальную раскрепощенность, найдет странную подработку, вдрызг поссорится с коллегами, а еще будет обстирывать всю свою семью. Татьяна уйдет с головой в работу, что, впрочем, не помешает ей ревновать мужа к новой секретарше, а еще попеременно воспитывать сестру Катеньку и сына Алешку.

Качество: HDTV 1080i
Формат: MPEG-TS

Видео: MPEG-4 AVC, ~ 6400 Кбит/с, 1920x1080, 25 кадр/с
Аудио: Русский (MP2, 2 ch, 192 Кбит/с)
скриншот   скриншот   скриншот  

Общее
Идентификатор : 1 (0x1)
Полное имя : E:\SashaTanya.06.2018.HDTV.(1080i).Nikolspup\SashaTanya.06.(01.seriya).2018.HDTV.(1080i).Nikolspup.ts
Формат : MPEG-TS
Размер файла : 1,11 Гбайт
Продолжительность : 22 м. 54 с.
Режим общего битрейта : Переменный
Общий поток : 6930 Кбит/сек

Видео
Идентификатор : 207 (0xCF)
Идентификатор меню : 2207 (0x89F)
Формат : AVC
Формат/Информация : Advanced Video Codec
Профиль формата : High@L4
Настройки формата : CABAC / 4 Ref Frames
Параметр CABAC формата : Да
Параметр RefFrames формата : 4 кадра
Идентификатор кодека : 27
Продолжительность : 22 м. 54 с.
Битрейт : 6394 Кбит/сек
Ширина : 1920 пикселей
Высота : 1080 пикселей
Соотношение сторон : 16:9
Частота кадров : 25,000 кадров/сек
Стандарт вещания : Component
Цветовое пространство : YUV
Субдискретизация насыщенности : 4:2:0
Битовая глубина : 8 бит
Тип развёртки : Чересстрочная
Метод сохранения типа развёртки : Раздельные поля
Порядок развёртки : Верхнее поле первое
Бит/(Пиксели*Кадры) : 0.123
Размер потока : 1,02 Гбайт (92%)
Цветовой диапазон : Limited
Основные цвета : BT.709
Характеристики трансфера : BT.709
Коэффициенты матрицы : BT.709

Аудио
Идентификатор : 307 (0x133)
Идентификатор меню : 2207 (0x89F)
Формат : MPEG Audio
Версия формата : Version 1
Профиль формата : Layer 2
Идентификатор кодека : 3
Продолжительность : 22 м. 54 с.
Вид битрейта : Постоянный
Битрейт : 192 Кбит/сек
Каналы : 2 канала
Частота : 48,0 КГц
Частота кадров : 41,667 кадра/сек (1152 SPF)
Метод сжатия : С потерями
Задержка видео : -120 мс.
Размер потока : 31,5 Мбайт (3%)
Язык : Russian

Внимание! Раздача ведётся путём добавления новых серий; при каждом добавлении создаётся новый торрент. Чтобы начать докачку новой серии, пользователям необходимо сделать следующее:
(1) остановить скачивание,
(2) удалить старый торрент у себя из клиента (старые серии удалять не надо),
(3) скачать новый торрент и запустить его у себя в клиенте вместо старого, при этом указать клиенту путь в старую папку куда и должно происходить скачивание новых серий.
Ваш клиент при этом должен произвести хеширование (проверку) старой папки (если не производит сам - помогите ему сделать это), и будет докачивать только те серии которых у вас ещё нет. Старые серии при этом не удаляются, а продолжают раздаваться!
Eсли вы уже удалили старые серии, то предотвратить повторную закачку старых серий можно, отжав галочку в соответствующих местах при запуске нового торрента. По возможности, желательно не удалять старые серии как можно дольше чтобы релизёр не столько продолжал раздавать старые серии, а смог сконцентрироваться на новых.
pb.wtf



Скачать СашаТаня через торрент http://i105.fastpic.ru/big/2018/0514/f0/5a142537e4e19cfd63a41e20f3c00ff0.jpg Скачать, смотреть онлайн СашаТаня бесплантно в хорошем качестве Описание: Смерившись с ипотекой, детским садиком и надоевшим папашей-олигархом, чете Сергеевых станет невыносимо скучно. Настолько, что они ... 9.6 10 12
Info! Золотая раздача, скачанное не засчитывается.
Торрент: Зарегистрирован [2018-05-30 18:48] · скачан: 102 раз
Статус: √ проверено
Размер: 14.82 GB
Как cкачать? Как скачать СашаТаня через торрент | UTorrent

% Раздел Тема Автор DL S | L
TNT serials [ 4.14 GB ] СашаТаня / Сезон: 6 / Серии: 1-11 из 11 + Фильм о фильме [2018 Ситком HDTVRip-AVC] bober100 Скачать
1 | 0
TNT serials [ 3.26 GB ] СашаТаня / Сезон: 6 / Серии: 1-11 из 11 + Фильм о фильме [2018 Ситком HDTVRip] bober100 Скачать
1 | 0

28-11-2019 20:33  

Отключить всю рекламу на сайте

    Дорогой пользователь! Огромная просьба, поблагодарите релизера, оцените раздачу и оставьте свои комментарий, если Вы скачали СашаТаня через торрент бесплатно!
    Комментировать посты могут только пользователи прошедшие не сложную регистрацию
    Показать сообщения:    

    СашаТаня через торрент
    Скачать бесплатно СашаТаня
    СашаТаня скачать торрент
    СашаТаня смотреть онлайн
    Cкачать фильм СашаТаня бесплатно
    СашаТаня скачать торрент в хорошем качестве
    СашаТаня смотреть онлайн бесплатно в хорошем качестве


    Вы не можете начинать темы
    Вы не можете отвечать на сообщения
    Вы не можете редактировать свои сообщения
    Вы не можете удалять свои сообщения
    Вы не можете голосовать в опросах
    Вы не можете прикреплять файлы к сообщениям
    Вы можете скачивать файлы