Ссылка на приватное зеркало нашего сайта всего за 1$. Внимание количество ограничено!!!

2 сезон

iTunes

1 сезон

1

2 сезон

2 сезон

iTunes

1 сезон

RePack

30

Ultimate

ВАЖНО

ИГРА 18+

pack

RePack

MK11
pack

Забери бонус

RePack

jed

!!Акция!!

Alien_Rage

RePack

fifa19

RePack

Assassins Creed: Odyssey

RePack

NEED FOR SPEED™ PAYBACK

4 сезон

9 сезон

Бесстыжие 9 сезон

Все сериалы

все сериалы на PB.wtf

RePack

FAR CRY 5
  

Супермошенники / Supercon (Зак Натсон) [2018 г., комедия, WEB-DL 1080p] MVO (HDrezka Studio) pb.wtf

Супермошенники через торрент pb.wtf

Размер: 5 GB | Добавлен: 2 года 6 мес. назад | Торрент скачан:108 раз
Скачать  

16-05-2018 06:11 Супермошенники Скачать торрент  

Супермошенники / SuperconГод выпуска: 2018
Страна: США
Жанр: комедия
Продолжительность: 01:39:50
Перевод: Профессиональный многоголосый (HDrezka Studio)
Субтитры: английские

Режиссер: Зак Натсон
В ролях: Мэгги Грэйс, Клэнси Браун, Райан Квантен, Джон Малкович, Майк Эппс, Расселл Питерс, Дэна Снайдер, Кэйли Флеминг, Джош Перри, Джефф Поуп

Описание: Группа вышедших в тираж телезвезд зарабатывает участием в конвентах. Но мириться с таким положением вещей им надоедает, и компания решает обокрасть властного телепродюсера.

rating

Качество: WEB-DL 1080p
Формат: MKV
Видео кодек: H.264
Аудио кодек: AC3
Видео: 1920x800 (2.40:1), 23.976 fps ~ 6000 Kbps
Аудио#1: 48 KHz, 2 ch ~ 384 Kb/s (русский)
Аудио#2: 48 KHz, 6 ch ~ 640 Kb/s (английский)
скриншот   скриншот   скриншот   скриншот   скриншот   скриншот   скриншот  

Общее
Уникальный идентификатор : 223432074730092465347348794461839447677 (0xA81773CBA1BFBDB79198BD3E3EBC567D)
Полное имя : Q:\TorF\Supercon.2018.WEB-DL.1080p.mkv
Формат : Matroska
Версия формата : Version 2
Размер файла : 5,00 Гбайт
Продолжительность : 1 ч. 39 м.
Режим общего битрейта : Переменный
Общий поток : 7165 Кбит/сек
Название фильма : Supercon (2018) WEB-DL 1080p
Дата кодирования : UTC 2018-05-15 06:46:35
Программа кодирования : mkvmerge v5.8.0 ('No Sleep / Pillow') built on Sep 2 2012 15:37:04
Библиотека кодирования : libebml v1.2.3 + libmatroska v1.3.0
Attachment : Yes

Видео
Идентификатор : 1
Формат : AVC
Формат/Информация : Advanced Video Codec
Профиль формата : High@L4.0
Параметр CABAC формата : Да
Параметр ReFrames формата : 4 кадра
Идентификатор кодека : V_MPEG4/ISO/AVC
Продолжительность : 1 ч. 39 м.
Вид битрейта : Переменный
Битрейт : 5998 Кбит/сек
Максимальный битрейт : 15,0 Мбит/сек
Ширина : 1920 пикселей
Высота : 800 пикселей
Соотношение сторон : 2,40:1
Частота кадров : 23,976 кадра/сек
Цветовое пространство : YUV
Субдискретизация насыщенности : 4:2:0
Битовая глубина : 8 бит
Тип развёртки : Прогрессивная
Бит/(Пиксели*Кадры) : 0.163
Размер потока : 4,18 Гбайт (84%)
Заголовок : Supercon (2018) WEB-DL 1080p
Default : Да
Forced : Нет
Основные цвета : BT.709-5, BT.1361, IEC 61966-2-4, SMPTE RP177
Характеристики трансфера : BT.709-5, BT.1361
Коэффициенты матрицы : BT.709-5, BT.1361, IEC 61966-2-4 709, SMPTE RP177

Аудио #1
Идентификатор : 2
Формат : AC-3
Формат/Информация : Audio Coding 3
Расширение режима : CM (complete main)
Идентификатор кодека : A_AC3
Продолжительность : 1 ч. 39 м.
Вид битрейта : Постоянный
Битрейт : 384 Кбит/сек
Каналы : 2 канала
Расположение каналов : Front: L R
Частота : 48,0 КГц
Битовая глубина : 16 бит
Метод сжатия : С потерями
Размер потока : 274 Мбайт (5%)
Язык : Russian
Default : Да
Forced : Нет

Аудио #2
Идентификатор : 3
Формат : E-AC-3
Формат/Информация : Audio Coding 3
Идентификатор кодека : A_EAC3
Продолжительность : 1 ч. 39 м.
Вид битрейта : Постоянный
Битрейт : 640 Кбит/сек
Каналы : 6 каналов
Расположение каналов : Front: L C R, Side: L R, LFE
Частота : 48,0 КГц
Метод сжатия : С потерями
Размер потока : 457 Мбайт (9%)
Язык : English
Default : Нет
Forced : Нет

Текст #1
Идентификатор : 4
Формат : UTF-8
Идентификатор кодека : S_TEXT/UTF8
Идентификатор кодека/Информация : UTF-8 Plain Text
Язык : English
Default : Нет
Forced : Нет

Текст #2
Идентификатор : 5
Формат : UTF-8
Идентификатор кодека : S_TEXT/UTF8
Идентификатор кодека/Информация : UTF-8 Plain Text
Заголовок : SDH
Язык : English
Default : Нет
Forced : Нет

pb.wtf



Скачать Супермошенники через торрент http://pic.kartinco.top/images/11/nkhdp.jpg Скачать фильм Супермошенники через торрент бесплантно в хорошем качестве Описание: Группа вышедших в тираж телезвезд зарабатывает участием в конвентах. Но мириться с таким положением вещей им надоедает, и ... 6.5 10 4
Info! Золотая раздача, скачанное не засчитывается.
Торрент: Зарегистрирован [2018-05-16 06:11] · скачан: 108 раз
Статус: T временная
Размер: 5 GB
Как cкачать? Как скачать Супермошенники через торрент | qTorrent

% Раздел Тема Автор DL S | L
T Фильмы 2018 [DVDrip, WEB-DLRip, HDrip] (DUB, MVO) [ 1.37 GB ] Супермошенники / Supercon [2018 WEB-DLRip] MVO [HDrezka Studio] bober100 Скачать
1 | 0

28-11-2019 20:33  

Отключить всю рекламу на сайте

16-05-2018 09:18 Супермошенники Скачать торрент  

Топик был перенесен из форума Фильмы [HD 720p, 1080p] (Звук Cam, VO, DVO) в форум Фильмы (WEB-DL 720p, 1080p)


schultzpb.wtf



16-05-2018 16:16 Супермошенники Скачать торрент  

8,3 рейтинг. Это значит, релизер поставил автоматическую десятку и двое посмотревших поставили низкую оценку... Стоит смотреть, или шутки уровня сортирного юмора?pb.wtf



16-05-2018 18:31 Супермошенники Скачать торрент  

рейтинг imdb тебе ни о чем не говорит?pb.wtf



17-05-2018 21:01 Супермошенники Скачать торрент  

h1n1 писал(а):

рейтинг imdb тебе ни о чем не говорит?

Похоже что нет .. pb.wtf



    Дорогой пользователь! Огромная просьба, поблагодарите релизера, оцените раздачу и оставьте свои комментарий, если Вы скачали Супермошенники через торрент бесплатно! Внесите свою лепту в развитие PiratBit!
    Комментировать посты могут только пользователи прошедшие не сложную регистрацию
    Показать сообщения:    

    Супермошенники через торрент
    Скачать бесплатно Супермошенники
    Супермошенники скачать торрент
    Супермошенники смотреть онлайн
    Cкачать фильм Супермошенники бесплатно
    Супермошенники скачать торрент в хорошем качестве
    Супермошенники смотреть онлайн бесплатно в хорошем качестве


    Вы не можете начинать темы
    Вы не можете отвечать на сообщения
    Вы не можете редактировать свои сообщения
    Вы не можете удалять свои сообщения
    Вы не можете голосовать в опросах
    Вы не можете прикреплять файлы к сообщениям
    Вы можете скачивать файлы