Ссылка на приватное зеркало нашего сайта всего за 1$. Внимание количество ограничено!!!

2 сезон

iTunes

1 сезон

1

iTunes

iTunes

iTunes

1 сезон

RePack

30

ИГРА 18+

pack

ВАЖНО

!!Акция!!

Alien_RageХит недели

RePack

MK11
pack

Забери бонус

RePack

jed

!!Акция!!

Alien_Rage

RePack

fifa19

RePack

Assassins Creed: Odyssey

RePack

NEED FOR SPEED™ PAYBACK

4 сезон

9 сезон

Бесстыжие 9 сезон

Все сериалы

все сериалы на PB.wtf

RePack

FAR CRY 5
  

Путешествие к центру души / Сезон: 1 / Серии: 1-16 из 16 (Дмитрий Матов) [2018, Мелодрама, SATRip-AVC] pb.wtf

Путешествие к центру души через торрент pb.wtf

Размер: 8.36 GB | Добавлен: 2 года 5 мес. назад | Торрент скачан:33 раза
Скачать  

16-05-2018 16:08 Путешествие к центру души Скачать торрент  

Путешествие к центру душиГод выпуска: 2018
Страна: Россия, Украина
Жанр: Мелодрама
Продолжительность: ~ 00:44:55
Перевод: Не требуется
Субтитры: Украинские

Режиссер: Дмитрий Матов

В ролях:

Мария Баева, Анастасия Иванова (II), Александр Робак, Андрей Аверков, Екатерина Семёнова, Игорь Скрипко, Даниил Мирешкин, Артём Позняк, Константин Корецкий, Ольга Радчук, Игорь Петрусенко, Сергей Деньга, Владимир Абазопуло (младший), Людмила Загорская

Описание:

Сага о судьбах двух девушек – Риты и Веры, ставших ближайшими подругами в переломный исторический момент распада СССР. История развивается на протяжении двадцати лет. Из-за любви к одному мужчине – Максиму, Рита и Вера из лучших подруг превращаются в смертельно опасных друг для друга врагов. Коварная Вера мучительно завидуя Рите мечтает прибрать к рукам не только ее любимого, но и Ритины деньги и Ритину жизнь. А Рита хочет начать все с чистого листа. И судьба дает каждой из них уникальный шанс: начать жизнь заново. Но старые обиды и грехи не позволяют Вере забыть о прошлом и перестать ненавидеть более удачливую и чистую подругу Риту.

Качество: SATRip-AVC
Формат: MKV

Видео: MPEG-4 AVC, ~ 1500 Кбит/с, 720x400, 25 кадр/с
Аудио: AC3, 2 ch, 192 Кбит/с
скриншот   скриншот   скриншот   скриншот  

Общее
Уникальный идентификатор : 173100427740362557376020043973034377799 (0x8239EE01F14834528DEE00CB6B9A0247)
Полное имя : F:\Путешествие к центру души.(2018).SATRip.(AVC).Files-x\01.Путешествие к центру души.(2018).SATRip.(AVC).by.Серый1779.Files-x.mkv
Формат : Matroska
Версия формата : Version 2
Размер файла : 550 Мбайт
Продолжительность : 45 м. 20 с.
Общий поток : 1694 Кбит/сек
Дата кодирования : UTC 2018-05-15 00:37:02
Программа кодирования : mkvmerge v7.8.0 ('River Man') 32bit built on Apr 3 2015 12:11:22
Библиотека кодирования : libebml v1.3.1 + libmatroska v1.4.2

Видео
Идентификатор : 1
Формат : AVC
Формат/Информация : Advanced Video Codec
Профиль формата : High@L4.1
Параметр CABAC формата : Да
Параметр RefFrames формата : 9 кадров
Идентификатор кодека : V_MPEG4/ISO/AVC
Продолжительность : 45 м. 20 с.
Битрейт : 1500 Кбит/сек
Ширина : 720 пикселей
Высота : 400 пикселей
Соотношение сторон : 16:9
Режим частоты кадров : Постоянный
Частота кадров : 25,000 кадров/сек
Цветовое пространство : YUV
Субдискретизация насыщенности : 4:2:0
Битовая глубина : 8 бит
Тип развёртки : Прогрессивная
Бит/(Пиксели*Кадры) : 0.208
Размер потока : 476 Мбайт (87%)
Библиотека кодирования : x264 core 146 r2538 121396c
Настройки программы : cabac=1 / ref=9 / deblock=1:-3:-3 / analyse=0x3:0x133 / me=umh / subme=9 / psy=1 / psy_rd=1.00:0.15 / mixed_ref=1 / me_range=32 / chroma_me=1 / trellis=2 / 8x8dct=1 / cqm=0 / deadzone=21,11 / fast_pskip=0 / chroma_qp_offset=-3 / threads=18 / lookahead_threads=3 / sliced_threads=0 / nr=0 / decimate=1 / interlaced=0 / bluray_compat=0 / constrained_intra=0 / bframes=9 / b_pyramid=2 / b_adapt=2 / b_bias=0 / direct=1 / weightb=1 / open_gop=0 / weightp=2 / keyint=250 / keyint_min=25 / scenecut=40 / intra_refresh=0 / rc=2pass / mbtree=0 / bitrate=1500 / ratetol=1.0 / qcomp=0.60 / qpmin=0 / qpmax=69 / qpstep=4 / cplxblur=20.0 / qblur=0.5 / ip_ratio=1.40 / pb_ratio=1.30 / aq=2:1.00
Default : Да
Forced : Нет
Цветовой диапазон : Limited
Основные цвета : BT.601 PAL
Характеристики трансфера : BT.470 System B, BT.470 System G
Коэффициенты матрицы : BT.601

Аудио
Идентификатор : 2
Формат : AC-3
Формат/Информация : Audio Coding 3
Расширение режима : CM (complete main)
Параметр Endianness формата : Big
Идентификатор кодека : A_AC3
Продолжительность : 45 м. 20 с.
Вид битрейта : Постоянный
Битрейт : 192 Кбит/сек
Каналы : 2 канала
Расположение каналов : Front: L R
Частота : 48,0 КГц
Частота кадров : 31,250 кадров/сек (1536 spf)
Метод сжатия : С потерями
Размер потока : 62,3 Мбайт (11%)
Default : Да
Forced : Нет

Внимание! Раздача ведётся путём добавления новых серий; при каждом добавлении создётся новый торрент. Чтобы начать докачку новой серии, пользователям необходимо сделать следующее:
(1) остановить скачивание,
(2) удалить старый торрент у себя из клиента (старые серии удалять не надо),
(3) скачать новый торрент и запустить его у себя в клиенте вместо старого, при этом указать клиенту путь в старую папку куда и должно происходить скачивание новых серий.
Ваш клиент при этом должен произвести хеширование (проверку) старой папки (если не производит сам - помогите ему сделать это), и будет докачивать только те серии которых у вас ещё нет. Старые серии при этом не удаляются, а продолжают раздаваться!
Eсли вы уже удалили старые серии, то предотвратить повторную закачку старых серий можно, отжав галочку в соответсвующих местах при запуске нового торрента.
pb.wtf



Скачать Путешествие к центру души через торрент https://i104.fastpic.ru/big/2018/0515/58/ebde71ed1393ee903bd99aed7e070758.jpg Скачать фильм Путешествие к центру души через торрент бесплантно в хорошем качестве Описание: Сага о судьбах двух девушек – Риты и Веры, ставших ближайшими подругами в переломный исторический момент распада СССР. История ... 5.8 10 8
Торрент: Зарегистрирован [2018-05-26 17:59] · скачан: 33 раз
Статус: √ проверено
Размер: 8.36 GB
Как cкачать? Как скачать Путешествие к центру души через торрент | qTorrent

% Раздел Тема Автор DL S | L
Наши сериалы [ 35.71 GB ] Путешествие к центру души / Сезон: 1 / Серии: 1-16 из 16 [2018 Мело WEB-DL 1080p] bober100 Скачать
1 | 0
Наши сериалы [ 13.41 GB ] Путешествие к центру души / Сезон: 1 / Серии: 1-16 из 16 [2018 Мело WEB-DL 720p] bober100 Скачать
1 | 0

28-11-2019 20:33  

Отключить всю рекламу на сайте

    Дорогой пользователь! Огромная просьба, поблагодарите релизера, оцените раздачу и оставьте свои комментарий, если Вы скачали Путешествие к центру души через торрент бесплатно! Внесите свою лепту в развитие PiratBit!
    Комментировать посты могут только пользователи прошедшие не сложную регистрацию
    Показать сообщения:    

    Путешествие к центру души через торрент
    Скачать бесплатно Путешествие к центру души
    Путешествие к центру души скачать торрент
    Путешествие к центру души смотреть онлайн
    Cкачать фильм Путешествие к центру души бесплатно
    Путешествие к центру души скачать торрент в хорошем качестве
    Путешествие к центру души смотреть онлайн бесплатно в хорошем качестве


    Вы не можете начинать темы
    Вы не можете отвечать на сообщения
    Вы не можете редактировать свои сообщения
    Вы не можете удалять свои сообщения
    Вы не можете голосовать в опросах
    Вы не можете прикреплять файлы к сообщениям
    Вы можете скачивать файлы