Ссылка на приватное зеркало нашего сайта всего за 1$. Внимание количество ограничено!!!

2 сезон

iTunes

1 сезон

1

2 сезон

2 сезон

iTunes

1 сезон

RePack

30

Ultimate

ВАЖНО

ИГРА 18+

pack

RePack

MK11
pack

Забери бонус

RePack

jed

!!Акция!!

Alien_Rage

RePack

fifa19

RePack

Assassins Creed: Odyssey

RePack

NEED FOR SPEED™ PAYBACK

4 сезон

9 сезон

Бесстыжие 9 сезон

Все сериалы

все сериалы на PB.wtf

RePack

FAR CRY 5
  

Еретик / Come Sunday (Джошуа Марстон) [2018, Драма, WEB-DL 1080p] MVO [NewStudio] pb.wtf

Еретик через торрент pb.wtf

Размер: 1.89 GB | Добавлен: 2 года 6 мес. назад | Торрент скачан:43 раза
Скачать  

16-05-2018 16:34 Еретик Скачать торрент  

Еретик / Come Sunday
Год выпуска: 2018
Страна: США
Жанр: Драма
Продолжительность: 01:45:26
Перевод: Профессиональный многоголосый |
Субтитры: Русские (форсированные)

Режиссер: Джошуа Марстон

rating

В ролях:

Лейкит Стэнфилд, Джейсон Сигел, Чиветель Эджиофор, Мартин Шин, Дэнни Гловер, Кондола Рашад, Трэйси Боннер, Хуан Гаспар, Кинг, Тони Стюарт

Описание:

Известный евангелистский священник Карлтон Пирсон утверждает, что к нему явился Бог и зародил в его душе сомнения относительно существования ада. После случившегося Карлтон стал выступать с проповедями о том, что ад как место для вечных страданий грешников не существует, а создан на Земле человеческой развращенностью.

Качество: WEB-DL 1080p
Формат: MKV

Видео: MPEG-4 AVC, 1793 Кбит/с, 1920x804
Аудио#1: Русский (AC3, 6 ch, 384 Кбит/с)
Аудио#2: английский (AC3, 6 ch, 384 Кбит/с)
скриншот   скриншот   скриншот  

Общее
Уникальный идентификатор : 279137162716969498054447496764496027889 (0xD1FFDCADC9A8FCFE2FBF6395E14420F1)
Полное имя : F:\Eretik.2018.WEBDL.1080p.NewStudio.TV.ADFree.mkv
Формат : Matroska
Версия формата : Version 4 / Version 2
Размер файла : 1,89 Гбайт
Продолжительность : 1 ч. 45 м.
Общий поток : 2563 Кбит/сек
Дата кодирования : UTC 2018-05-16 14:16:35
Программа кодирования : mkvmerge v23.0.0 ('The Bride Said No') 64-bit
Библиотека кодирования : libebml v1.3.6 + libmatroska v1.4.9
Attachments : OpenSans-Semibold.ttf

Видео
Идентификатор : 2
Формат : AVC
Формат/Информация : Advanced Video Codec
Профиль формата : High@L4.1
Параметр CABAC формата : Да
Параметр RefFrames формата : 5 кадров
Идентификатор кодека : V_MPEG4/ISO/AVC
Продолжительность : 1 ч. 45 м.
Битрейт : 1793 Кбит/сек
Ширина : 1920 пикселей
Высота : 804 пикселя
Соотношение сторон : 2,40:1
Режим частоты кадров : Постоянный
Частота кадров : 23,976 (24000/1001) кадра/сек
Цветовое пространство : YUV
Субдискретизация насыщенности : 4:2:0
Битовая глубина : 8 бит
Тип развёртки : Прогрессивная
Бит/(Пиксели*Кадры) : 0.048
Размер потока : 1,32 Гбайт (70%)
Библиотека кодирования : x264 core 155 r2901 7d0ff22
Настройки программы : cabac=1 / ref=5 / deblock=1:0:0 / analyse=0x3:0x113 / me=hex / subme=8 / psy=1 / psy_rd=1.00:0.00 / mixed_ref=1 / me_range=16 / chroma_me=1 / trellis=2 / 8x8dct=1 / cqm=0 / deadzone=21,11 / fast_pskip=1 / chroma_qp_offset=-2 / threads=24 / lookahead_threads=4 / sliced_threads=0 / nr=0 / decimate=1 / interlaced=0 / bluray_compat=0 / constrained_intra=0 / bframes=3 / b_pyramid=2 / b_adapt=1 / b_bias=0 / direct=3 / weightb=1 / open_gop=0 / weightp=2 / keyint=240 / keyint_min=24 / scenecut=40 / intra_refresh=0 / rc_lookahead=50 / rc=crf / mbtree=1 / crf=20.0 / qcomp=0.60 / qpmin=0 / qpmax=69 / qpstep=4 / vbv_maxrate=62500 / vbv_bufsize=78125 / crf_max=0.0 / nal_hrd=none / filler=0 / ip_ratio=1.40 / aq=1:1.00
Default : Да
Forced : Нет
Цветовой диапазон : Limited
Основные цвета : BT.709
Характеристики трансфера : BT.709
Коэффициенты матрицы : BT.709

Аудио #1
Идентификатор : 1
Формат : AC-3
Формат/Информация : Audio Coding 3
Расширение режима : CM (complete main)
Параметр Endianness формата : Big
Идентификатор кодека : A_AC3
Продолжительность : 1 ч. 45 м.
Вид битрейта : Постоянный
Битрейт : 384 Кбит/сек
Каналы : 6 каналов
Расположение каналов : Front: L C R, Side: L R, LFE
Частота : 48,0 КГц
Частота кадров : 31,250 кадров/сек (1536 spf)
Метод сжатия : С потерями
Размер потока : 290 Мбайт (15%)
Язык : Russian
Default : Да
Forced : Нет

Аудио #2
Идентификатор : 3
Формат : AC-3
Формат/Информация : Audio Coding 3
Расширение режима : CM (complete main)
Параметр Endianness формата : Big
Идентификатор кодека : A_AC3
Продолжительность : 1 ч. 45 м.
Вид битрейта : Постоянный
Битрейт : 384 Кбит/сек
Каналы : 6 каналов
Расположение каналов : Front: L C R, Side: L R, LFE
Частота : 48,0 КГц
Частота кадров : 31,250 кадров/сек (1536 spf)
Метод сжатия : С потерями
Размер потока : 290 Мбайт (15%)
Язык : English
Default : Нет
Forced : Нет

Текст
Идентификатор : 4
Формат : ASS
Идентификатор кодека : S_TEXT/ASS
Идентификатор кодека/Информация : Advanced Sub Station Alpha
Продолжительность : 1 ч. 31 м.
Битрейт : 14 бит/сек
ElementCount : 149
Метод сжатия : Без потерь
Размер потока : 9,43 Кбайт (0%)
Язык : Russian
Default : Да
Forced : Нет

pb.wtf



Скачать Еретик через торрент http://pic1.kartinco.top/images/11/gvku1.jpg Скачать фильм Еретик через торрент бесплантно в хорошем качестве Описание: Известный евангелистский священник Карлтон Пирсон утверждает, что к нему явился Бог и зародил в его душе сомнения относительно ... 7 10 3
Торрент: Зарегистрирован [2018-05-16 16:34] · скачан: 43 раз
Статус: √ проверено
Размер: 1.89 GB
Как cкачать? Как скачать Еретик через торрент | qTorrent

% Раздел Тема Автор DL S | L
Фильмы 2018 [DVDrip, WEB-DLRip, HDrip] (DUB, MVO) [ 1.37 GB ] Еретик / Come Sunday [2018 WEB-DLRip] MVO [NewStudio] bober100 Скачать
1 | 0

28-11-2019 20:33  

Отключить всю рекламу на сайте

    Дорогой пользователь! Огромная просьба, поблагодарите релизера, оцените раздачу и оставьте свои комментарий, если Вы скачали Еретик через торрент бесплатно! Внесите свою лепту в развитие PiratBit!
    Комментировать посты могут только пользователи прошедшие не сложную регистрацию
    Показать сообщения:    

    Еретик через торрент
    Скачать бесплатно Еретик
    Еретик скачать торрент
    Еретик смотреть онлайн
    Cкачать фильм Еретик бесплатно
    Еретик скачать торрент в хорошем качестве
    Еретик смотреть онлайн бесплатно в хорошем качестве


    Вы не можете начинать темы
    Вы не можете отвечать на сообщения
    Вы не можете редактировать свои сообщения
    Вы не можете удалять свои сообщения
    Вы не можете голосовать в опросах
    Вы не можете прикреплять файлы к сообщениям
    Вы можете скачивать файлы