новый адрес
Ссылка на приватное зеркало всего за 1$. Внимание количество ограничено!!!

iTunes

1+1

iTunes

мы

iTunes

1

iTunes

Чернобыль

iTunes

Ральф против интернета

Лицензия

ПШазам

Лицензия

Оно 2

Лицензия

30
pack

Вам бонус

ВАЖНО

!!Акция!!

Alien_RageХит недели

RePack

Resident Evil 21

ИГРА 18+

pack

RePack

jed

!!Акция!!

Alien_Rage

RePack

fifa19

RePack

Assassins Creed: Odyssey

RePack

NEED FOR SPEED™ PAYBACK

3 сезон

9 сезон

Бесстыжие 9 сезон

Все сериалы

все сериалы на PB.wtf

RePack

FAR CRY 5
Ребята, катастрофически не хватает 1900р. для оплаты серверов за Октябрь (всвязи с блокировками трафик упал в 3 раза), 1-2р., выручайте.
  

Убийство в Восточном экспрессе / Murder on the Orient Express (Кеннет Брана) [2017, драма, криминал, детектив, UHD BDRip 2160p] DUB (rus, ukr) + AVO pb.wtf

Убийство в Восточном экспрессе через торрент pb.wtf

Размер: 13.52 GB | Добавлен: 1 год 6 мес. назад | Торрент скачан:72 раза
Скачать  

16-05-2018 16:35 Убийство в Восточном экспрессе Скачать торрент  

Убийство в Восточном экспрессе / Murder on the Orient Express«Под подозрением каждый»
Год выпуска: 2017
Страна: Мальта, США
Жанр: драма, криминал, детектив
Продолжительность: 01:53:55
Перевод: Дублированный, авторский
Субтитры: Русские, английские, украинские
Режиссер: Кеннет Брана
В ролях:

Кеннет Брана (Hercule Poirot), Пенелопа Крус (Pilar Estravados), Уиллем Дефо (Gerhard Hardman), Джуди Денч (Princess Dragomiroff), Джонни Депп (Edward Ratchett), Джош Гад (Hector MacQueen), Дерек Джекоби (Edward Henry Masterman), Лесли Одом мл. (Dr. Arbuthnot), Мишель Пфайффер (Caroline Hubbard), Дэйзи Ридли (Miss Mary Debenham), Том Бейтман (Bouc), Марван Кензари (Pierre Michel)
Описание:
Путешествие на одном из самых роскошных поездов Европы неожиданно превращается в одну из самых стильных и захватывающих загадок в истории. Фильм рассказывает историю тринадцати пассажиров поезда, каждый из которых находится под подозрением. И только сыщик должен как можно быстрее разгадать головоломку, прежде чем преступник нанесет новый удар.
Рейтинг:

MPAA: PG-13 - Детям до 13 лет просмотр не желателен
Качество: UHD BDRip 2160p
Формат: MKV
Видео: HEVC, 14200 Мбит/с, 3840x1604, 23.976 Кадр/с
Аудио 1: Russian DTS 5.1 / 48 kHz / 768 kbps / 24 bits (Дублированный)
Аудио 2: Russian DTS 5.1 / 48 kHz / 768 kbps / 24 bits (AVO В.Назаров)
Аудио 3: Ukrainian DD 5.1 / 48 kHz / 448 kbps / 16 bits (Дублированный)
Аудио 4: English DTS 5.1 / 48 kHz / 768 kbps / 24 bits
Навигация по главам: есть
Complete name : MRDR_RNT_XPRSS_2017_UHD-BDRip_HDR_BT2020_x265_2160P -BLUEBIRD.mkv
Format : Matroska
Format version : Version 4 / Version 2
File size : 13.5 GiB
Duration : 1 h 53 min
Overall bit rate : 17.0 Mb/s
Movie name : Murder on the Orient Express / Убийство в Восточном экспрессе // Мальта, США, 2017 год, фильм // HDR HEVC UHD BDRip 2160p (iS)
Encoded date : UTC 2018-05-11 09:37:07
Writing application : mkvmerge v23.0.0 ('The Bride Said No') 64-bit
Writing library : libebml v1.3.6 + libmatroska v1.4.9
Attachments : poster.jpg / x265_log.txt

Video
ID : 1
Format : HEVC
Format/Info : High Efficiency Video Coding
Commercial name : HDR10
Format profile : Main 10@L5.1@High
Codec ID : V_MPEGH/ISO/HEVC
Duration : 1 h 53 min
Bit rate : 14.2 Mb/s
Width : 3 840 pixels
Height : 1 604 pixels
Display aspect ratio : 2.40:1
Frame rate mode : Constant
Frame rate : 23.976 (24000/1001) FPS
Color space : YUV
Chroma subsampling : 4:2:0 (Type 2)
Bit depth : 10 bits
Bits/(Pixel*Frame) : 0.096
Stream size : 11.3 GiB (84%)
Writing library : x265 2.7+340-aa9102400f24:[Windows][MSVC 1914][64 bit] 10bit
Encoding settings : cpuid=1111039 / frame-threads=3 / numa-pools=8 / wpp / no-pmode / no-pme / no-psnr / no-ssim / log-level=2 / input-csp=1 / input-res=3840x1604 / interlace=0 / total-frames=153561 / level-idc=51 / high-tier=1 / uhd-bd=0 / ref=4 / no-allow-non-conformance / repeat-headers / annexb / no-aud / no-hrd / info / hash=0 / no-temporal-layers / no-open-gop / min-keyint=23 / keyint=250 / gop-lookahead=0 / bframes=9 / b-adapt=2 / b-pyramid / bframe-bias=0 / rc-lookahead=48 / lookahead-slices=4 / scenecut=40 / radl=0 / no-intra-refresh / ctu=64 / min-cu-size=8 / no-rect / no-amp / max-tu-size=32 / tu-inter-depth=1 / tu-intra-depth=1 / limit-tu=0 / rdoq-level=2 / dynamic-rd=0.00 / no-ssim-rd / signhide / no-tskip / nr-intra=0 / nr-inter=0 / no-constrained-intra / no-strong-intra-smoothing / max-merge=5 / limit-refs=3 / limit-modes / me=3 / subme=7 / merange=57 / temporal-mvp / weightp / weightb / no-analyze-src-pics / deblock=0:0 / no-sao / no-sao-non-deblock / rd=4 / no-early-skip / no-rskip / no-fast-intra / no-tskip-fast / no-cu-lossless / no-b-intra / no-splitrd-skip / rdpenalty=0 / psy-rd=2.65 / psy-rdoq=1.73 / no-rd-refine / no-lossless / cbqpoffs=0 / crqpoffs=0 / rc=crf / crf=21.3 / qcomp=0.74 / qpstep=4 / stats-write=0 / stats-read=0 / vbv-maxrate=160000 / vbv-bufsize=160000 / vbv-init=0.9 / crf-max=0.0 / crf-min=0.0 / ipratio=1.20 / pbratio=1.10 / aq-mode=0 / aq-strength=0.00 / no-cutree / zone-count=0 / no-strict-cbr / qg-size=32 / no-rc-grain / qpmax=69 / qpmin=0 / no-const-vbv / sar=0 / overscan=0 / videoformat=5 / range=0 / colorprim=9 / transfer=16 / colormatrix=9 / chromaloc=1 / chromaloc-top=2 / chromaloc-bottom=2 / display-window=0 / master-display=G(13250,34500)B(7500,3000)R(34000,16000)WP(15635,16450)L(10000000,50) / max-cll=0,0 / min-luma=0 / max-luma=1023 / log2-max-poc-lsb=8 / vui-timing-info / vui-hrd-info / slices=1 / no-opt-qp-pps / no-opt-ref-list-length-pps / no-multi-pass-opt-rps / scenecut-bias=0.05 / no-opt-cu-delta-qp / no-aq-motion / hdr / no-hdr-opt / no-dhdr10-opt / no-idr-recovery-sei / analysis-reuse-level=5 / scale-factor=0 / refine-intra=0 / refine-inter=0 / refine-mv=0 / no-limit-sao / ctu-info=0 / no-lowpass-dct / refine-mv-type=0 / copy-pic=1 / max-ausize-factor=1.0 / no-dynamic-refine / no-single-sei
Default : Yes
Forced : No
Color range : Limited
Color primaries : BT.2020
Transfer characteristics : PQ
Matrix coefficients : BT.2020 non-constant
Mastering display color primar : Display P3
Mastering display luminance : min: 0.0050 cd/m2, max: 1000 cd/m2

Audio #1
ID : 2
Format : DTS
Format/Info : Digital Theater Systems
Codec ID : A_DTS
Duration : 1 h 53 min
Bit rate mode : Constant
Bit rate : 768 kb/s
Channel(s) : 6 channels
Channel positions : Front: L C R, Side: L R, LFE
Sampling rate : 48.0 kHz
Frame rate : 93.750 FPS (512 SPF)
Bit depth : 24 bits
Compression mode : Lossy
Stream size : 626 MiB (5%)
Title : DUB
Language : Russian
Default : Yes
Forced : No

Audio #2
ID : 3
Format : DTS
Format/Info : Digital Theater Systems
Codec ID : A_DTS
Duration : 1 h 53 min
Bit rate mode : Constant
Bit rate : 768 kb/s
Channel(s) : 6 channels
Channel positions : Front: L C R, Side: L R, LFE
Sampling rate : 48.0 kHz
Frame rate : 93.750 FPS (512 SPF)
Bit depth : 24 bits
Compression mode : Lossy
Stream size : 626 MiB (5%)
Title : AVO В. Назаров
Language : Russian
Default : No
Forced : No

Audio #3
ID : 4
Format : DTS
Format/Info : Digital Theater Systems
Codec ID : A_DTS
Duration : 1 h 53 min
Bit rate mode : Constant
Bit rate : 768 kb/s
Channel(s) : 6 channels
Channel positions : Front: L C R, Side: L R, LFE
Sampling rate : 48.0 kHz
Frame rate : 93.750 FPS (512 SPF)
Bit depth : 24 bits
Compression mode : Lossy
Stream size : 626 MiB (5%)
Language : English
Default : No
Forced : No

Audio #4
ID : 5
Format : AC-3
Format/Info : Audio Coding 3
Codec ID : A_AC3
Duration : 1 h 53 min
Bit rate mode : Constant
Bit rate : 448 kb/s
Channel(s) : 6 channels
Channel positions : Front: L C R, Side: L R, LFE
Sampling rate : 48.0 kHz
Frame rate : 31.250 FPS (1536 SPF)
Bit depth : 16 bits
Compression mode : Lossy
Stream size : 365 MiB (3%)
Title : DUB
Language : Ukrainian
Service kind : Complete Main
Default : No
Forced : No

Text #1
ID : 6
Format : UTF-8
Codec ID : S_TEXT/UTF8
Codec ID/Info : UTF-8 Plain Text
Duration : 1 h 53 min
Bit rate : 108 b/s
Count of elements : 1606
Stream size : 90.1 KiB (0%)
Language : Russian
Default : Yes
Forced : No

Text #2
ID : 7
Format : UTF-8
Codec ID : S_TEXT/UTF8
Codec ID/Info : UTF-8 Plain Text
Duration : 1 h 53 min
Bit rate : 1 b/s
Count of elements : 33
Stream size : 1.24 KiB (0%)
Title : forced
Language : Russian
Default : No
Forced : No

Text #3
ID : 8
Format : UTF-8
Codec ID : S_TEXT/UTF8
Codec ID/Info : UTF-8 Plain Text
Duration : 1 h 44 min
Bit rate : 72 b/s
Count of elements : 1844
Stream size : 55.4 KiB (0%)
Language : English
Default : No
Forced : No

Text #4
ID : 9
Format : UTF-8
Codec ID : S_TEXT/UTF8
Codec ID/Info : UTF-8 Plain Text
Duration : 1 h 33 min
Bit rate : 0 b/s
Count of elements : 25
Stream size : 545 Bytes (0%)
Title : forced
Language : English
Default : No
Forced : No

Text #5
ID : 10
Format : UTF-8
Codec ID : S_TEXT/UTF8
Codec ID/Info : UTF-8 Plain Text
Duration : 1 h 45 min
Bit rate : 74 b/s
Count of elements : 1977
Stream size : 57.5 KiB (0%)
Title : SDH
Language : English
Default : No
Forced : No

Text #6
ID : 11
Format : UTF-8
Codec ID : S_TEXT/UTF8
Codec ID/Info : UTF-8 Plain Text
Duration : 1 h 53 min
Bit rate : 110 b/s
Count of elements : 1574
Stream size : 91.7 KiB (0%)
Language : Ukrainian
Default : No
Forced : No

Text #7
ID : 12
Format : UTF-8
Codec ID : S_TEXT/UTF8
Codec ID/Info : UTF-8 Plain Text
Duration : 1 h 50 min
Bit rate : 1 b/s
Count of elements : 27
Stream size : 1.04 KiB (0%)
Title : forced
Language : Ukrainian
Default : No
Forced : No

Menu
00:00:00.000 : en:Chapter 1
00:03:06.144 : en:Chapter 2
00:06:42.193 : en:Chapter 3
00:11:44.745 : en:Chapter 4
00:18:26.188 : en:Chapter 5
00:24:53.658 : en:Chapter 6
00:33:14.158 : en:Chapter 7
00:37:47.515 : en:Chapter 8
00:43:16.510 : en:Chapter 9
00:46:24.865 : en:Chapter 10
00:51:23.580 : en:Chapter 11
00:55:52.015 : en:Chapter 12
01:00:03.182 : en:Chapter 13
01:05:39.226 : en:Chapter 14
01:10:40.152 : en:Chapter 15
01:14:17.578 : en:Chapter 16
01:18:05.055 : en:Chapter 17
01:21:12.284 : en:Chapter 18
01:24:39.365 : en:Chapter 19
01:28:37.854 : en:Chapter 20
01:32:28.376 : en:Chapter 21
01:37:04.652 : en:Chapter 22
01:40:30.024 : en:Chapter 23
01:46:49.903 : en:Chapter 24
pb.wtf



Скачать Убийство в Восточном экспрессе через торрент https://a.radikal.ru/a02/1805/66/2619d42ebf45.png Скачать фильм Убийство в Восточном экспрессе через торрент бесплантно в хорошем качестве Описание: Путешествие на одном из самых роскошных поездов Европы неожиданно превращается в одну из самых стильных и захватывающих загадок в ... 10 10 5
Торрент: Зарегистрирован [2018-05-16 16:35] · скачан: 72 раз
Статус: √ проверено
Размер: 13.52 GB
Как cкачать? Как скачать Убийство в Восточном экспрессе через торрент | qTorrent

% Раздел Тема Автор DL S | L
Фильмы до 2000 г. [ 3.81 GB ] Убийство в Восточном экспрессе / Murder on the Orient Express [1974 г BDRip-AVC] DUB MVO AVO koenig Скачать
1 | 0


>> Переходим по ссылке <<
Автоматически подгузится скрипт который настроит ваш браузер на выигрыш!!
После настройки браузера вероятность выигрыша увеличется в 4.1-4,6 раза.
В течение 6 секунд вам откроется настроенный интерфейс казино, с повышенной вероятностью выигрыша.






Отзывы и комментарии о схеме читаем и пишем здесь: ---> Отзывы и комментарии о схеме

Новые благодарочки в телеграм довольных пользователей:
скриншот   скриншот   скриншот   скриншот   скриншот
    Дорогой пользователь! Огромная просьба, поблагодарите релизера, оцените раздачу и оставьте свои комментарий, если Вы скачали Убийство в Восточном экспрессе через торрент бесплатно! Внесите свою лепту в развитие PiratBit!
    Комментировать посты могут только пользователи прошедшие не сложную регистрацию
    Показать сообщения:    

    Убийство в Восточном экспрессе через торрент
    Скачать бесплатно Убийство в Восточном экспрессе
    Убийство в Восточном экспрессе скачать торрент
    Убийство в Восточном экспрессе смотреть онлайн
    Cкачать фильм Убийство в Восточном экспрессе бесплатно
    Убийство в Восточном экспрессе скачать торрент в хорошем качестве
    Убийство в Восточном экспрессе смотреть онлайн бесплатно в хорошем качестве


    Вы не можете начинать темы
    Вы не можете отвечать на сообщения
    Вы не можете редактировать свои сообщения
    Вы не можете удалять свои сообщения
    Вы не можете голосовать в опросах
    Вы не можете прикреплять файлы к сообщениям
    Вы можете скачивать файлы