Лицензия

MVO

1

1 сезон

Лицензия

Лицензия

13

MVO

1 сезон

Deluxe Edition

pack

Рекомендуем

30

Repack

ВАЖНО

ВАЖНО

Ghostwire

RePack

jed

RePack

fifa19

RePack

RDR2

RePack

NEED FOR SPEED™ PAYBACK

RePack

Кинопоиск HD

 Острые козырьки 6 сезон

6 сезон

FAR CRY 6

RePack

Лицензия

MVO

1

1 сезон

1 сезон

Лицензия

  

Землетрясение на Эвересте / Earthquake on Everest ( Дик Бауэр) [2015 г., Документальный, катастрофа, научный, исследование, HDTVRip 1080p, Дублированный (Велес)]

Землетрясение на Эвересте через торрент pb.wtf

Размер: 2.18 GB | Добавлен: 4 года 4 мес. назад | Торрент скачан:48 раз
Смотреть онлайн Землетрясение на Эвересте | Скачать   

16-05-2018 18:49 Землетрясение на Эвересте Скачать торрент  

Землетрясение на Эвересте / Earthquake on Everest
Год выпуска: 2015
Страна: США, National Geographic Channel
Жанр:Документальный, катастрофа, научный, исследование
Продолжительность: 00:44:00
Перевод:Дублированный (Велес)

Режиссер: Дик Бауэр

Описание:

Апрель 2015 года. Непал. Мощное землетрясение прокатилось по самому высокому горному хребту на Земле, вызвав смертоносные оползни и лавины невиданных раньше масштабов. Каждая минута катастрофы была снята на камеру. После шумихи в прессе только сейчас стала известна правда о случившимся. Неизвестные материалы и поразительные рассказы свидетелей, переживших катастрофу...




Качество: HDTVRip 1080p
Формат:MPEG-TS
Видео кодек: AVC/H.264
Аудио кодек: AC3
Видео: AVC/H.264 (1980х1080), 6365 Кбит/с, 25.000 кадра/сек
Аудио#1: AC3, 2 ch, 192 Kbps | Русский (текст читал: Борис Хасанов)
скриншот  скриншот  скриншот  

Общее
Идентификатор : 1 (0x1)
Полное имя : F:\КИНО\Earthquake.on.Everest.(2015).HDTV.1080i.Rus.Eng_HDCLUB.ts
Формат : MPEG-TS
Размер файла : 2,18 Гбайт
Продолжительность : 43 м. 56 с.
Режим общего битрейта : Переменный
Общий поток : 7104 Кбит/сек
Максимальный общий битрейт : 35,5 Мбит/сек

Видео
Идентификатор : 4113 (0x1011)
Идентификатор меню : 1 (0x1)
Формат : AVC
Формат/Информация : Advanced Video Codec
Профиль формата : [email protected]
Настройки формата : CABAC / 3 Ref Frames
Параметр CABAC формата : Да
Параметр RefFrames формата : 3 кадра
Идентификатор кодека : 27
Продолжительность : 43 м. 56 с.
Вид битрейта : Переменный
Битрейт : 6365 Кбит/сек
Максимальный битрейт : 40,0 Мбит/сек
Ширина : 1920 пикселей
Высота : 1080 пикселей
Соотношение сторон : 16:9
Частота кадров : 25,000 кадров/сек
Стандарт вещания : Component
Цветовое пространство : YUV
Субдискретизация насыщенности : 4:2:0
Битовая глубина : 8 бит
Тип развёртки : Чересстрочная
Метод сохранения типа развёртки : Раздельные поля
Порядок развёртки : Верхнее поле первое
Бит/(Пиксели*Кадры) : 0.123
Размер потока : 1,95 Гбайт (90%)
Цветовой диапазон : Limited
Основные цвета : BT.709
Характеристики трансфера : BT.709
Коэффициенты матрицы : BT.709

Аудио #1
Идентификатор : 4352 (0x1100)
Идентификатор меню : 1 (0x1)
Формат : AC-3
Формат/Информация : Audio Coding 3
Идентификатор кодека : 129
Продолжительность : 43 м. 56 с.
Вид битрейта : Постоянный
Битрейт : 192 Кбит/сек
Каналы : 2 канала
Расположение каналов : Front: L R
Частота : 48,0 КГц
Частота кадров : 31,250 кадров/сек (1536 SPF)
Битовая глубина : 16 бит
Метод сжатия : С потерями
Размер потока : 60,3 Мбайт (3%)
Язык : Russian
ServiceKind/String : Complete Main

Аудио #2
Идентификатор : 4353 (0x1101)
Идентификатор меню : 1 (0x1)
Формат : AC-3
Формат/Информация : Audio Coding 3
Идентификатор кодека : 129
Продолжительность : 43 м. 56 с.
Вид битрейта : Постоянный
Битрейт : 192 Кбит/сек
Каналы : 2 канала
Расположение каналов : Front: L R
Частота : 48,0 КГц
Частота кадров : 31,250 кадров/сек (1536 SPF)
Битовая глубина : 16 бит
Метод сжатия : С потерями
Размер потока : 60,3 Мбайт (3%)
Язык : English
ServiceKind/String : Complete Main




Скачать Землетрясение на Эвересте через торрент http://i3-imageban-ru.translate.goog/out/2018/05/08/c8b3c533394f1d2f82bd1f6f95180e2c.jpg Скачать, смотреть онлайн Землетрясение на Эвересте бесплантно в хорошем качестве Описание: Апрель 2015 года. Непал. Мощное землетрясение прокатилось по самому высокому горному хребту на Земле, вызвав смертоносные оползни ... 3 10 2
Торрент: Зарегистрирован [2018-05-16 18:49] · скачан: 48 раз
Статус: √ проверено
Размер: 2.18 GB
Как cкачать? Как скачать Землетрясение на Эвересте через торрент | UTorrent

% Раздел Тема Автор DL S | L
National Geographic [ 724 MB ] National Geographic. Землетрясение на Эвересте / Earthquake on Everest | | WEBRip, Профессиональный (одноголосый Хорват Скачать
1 | 0

28-11-2019 20:33  

Отключить вcю реклaмy на сайте

    Дорогой пользователь! Огромная просьба, поблагодарите релизера, оцените раздачу и оставьте свои комментарий, если Вы скачали Землетрясение на Эвересте через торрент бесплатно!!
    Комментировать посты могут только пользователи прошедшие не сложную регистрацию
    Показать сообщения:    


    Землетрясение на Эвересте через торрент
    Скачать бесплатно Землетрясение на Эвересте
    Землетрясение на Эвересте скачать торрент
    Землетрясение на Эвересте смотреть онлайн
    Cкачать фильм Землетрясение на Эвересте бесплатно
    Землетрясение на Эвересте скачать торрент в хорошем качестве
    Землетрясение на Эвересте смотреть онлайн бесплатно в хорошем качестве
    Вы не можете начинать темы
    Вы не можете отвечать на сообщения
    Вы не можете редактировать свои сообщения
    Вы не можете удалять свои сообщения
    Вы не можете голосовать в опросах
    Вы не можете прикреплять файлы к сообщениям
    Вы можете скачивать файлы