2 сезон

iTunes

1 сезон

1

iTunes

iTunes

iTunes

1 сезон

RePack

30

ИГРА 18+

pack

ВАЖНО

!!Акция!!

Alien_RageХит недели

RePack

MK11
pack

Забери бонус

RePack

jed

!!Акция!!

Alien_Rage

RePack

fifa19

RePack

Assassins Creed: Odyssey

RePack

NEED FOR SPEED™ PAYBACK

4 сезон

9 сезон

Бесстыжие 9 сезон

Все сериалы

все сериалы на PB.wtf

RePack

FAR CRY 5
  

Путешествие к центру души / Сезон: 1 / Серии: 1-16 из 16 (Дмитрий Матов) [2018, Мелодрама, WEB-DL 720p] pb.wtf

Путешествие к центру души через торрент pb.wtf

Размер: 13.41 GB | Добавлен: 2 года 5 мес. назад | Торрент скачан:20 раз
Скачать  

16-05-2018 20:22 Путешествие к центру души Скачать торрент  

Путешествие к центру душиГод выпуска: 2018
Страна: Россия, Украина
Жанр: Мелодрама
Продолжительность: ~ 00:44:55
Перевод: Не требуется
Субтитры: Украинские

Режиссер: Дмитрий Матов

В ролях:

Мария Баева, Анастасия Иванова (II), Александр Робак, Андрей Аверков, Екатерина Семёнова, Игорь Скрипко, Даниил Мирешкин, Артём Позняк, Константин Корецкий, Ольга Радчук, Игорь Петрусенко, Сергей Деньга, Владимир Абазопуло (младший), Людмила Загорская

Описание:

Сага о судьбах двух девушек – Риты и Веры, ставших ближайшими подругами в переломный исторический момент распада СССР. История развивается на протяжении двадцати лет. Из-за любви к одному мужчине – Максиму, Рита и Вера из лучших подруг превращаются в смертельно опасных друг для друга врагов. Коварная Вера мучительно завидуя Рите мечтает прибрать к рукам не только ее любимого, но и Ритины деньги и Ритину жизнь. А Рита хочет начать все с чистого листа. И судьба дает каждой из них уникальный шанс: начать жизнь заново. Но старые обиды и грехи не позволяют Вере забыть о прошлом и перестать ненавидеть более удачливую и чистую подругу Риту.

Качество: WEB-DL 720p
Формат: MKV

Видео: MPEG-4 AVC, ~ 3000 Кбит/с, 1280x720
Аудио: AC3, 2 ch, 192 Кбит/с
скриншот  скриншот  скриншот  

Общее
Уникальный идентификатор : 106124060637953532381599420071950855622 (0x4FD6C028A63D0E4BE3E64A7C9132ADC6)
Полное имя : F:\Путешествие к центру души.2018.WEBRip (720p).by.Nicodem.Files-x\01.Путешествие к центру души.2018.WEBRip (720p).by.Nicodem.Files-x.mkv
Формат : Matroska
Версия формата : Version 4 / Version 2
Размер файла : 1,02 Гбайт
Продолжительность : 45 м. 46 с.
Режим общего битрейта : Постоянный
Общий поток : 3177 Кбит/сек
Программа кодирования : Lavf56.36.100
Библиотека кодирования : Lavf56.36.100 / Lavf56.36.100

Видео
Идентификатор : 1
Формат : AVC
Формат/Информация : Advanced Video Codec
Профиль формата : High@L3.1
Параметр CABAC формата : Нет
Параметр RefFrames формата : 2 кадра
Параметр GOP формата : M=3, N=50
Идентификатор кодека : V_MPEG4/ISO/AVC
Продолжительность : 45 м. 46 с.
Вид битрейта : Постоянный
Битрейт : 3000 Кбит/сек
Ширина : 1280 пикселей
Высота : 720 пикселей
Соотношение сторон : 16:9
Режим частоты кадров : Постоянный
Частота кадров : 25,000 кадров/сек
Стандарт вещания : PAL
Цветовое пространство : YUV
Субдискретизация насыщенности : 4:2:0
Битовая глубина : 8 бит
Тип развёртки : Прогрессивная
Бит/(Пиксели*Кадры) : 0.130
Размер потока : 956 Мбайт (92%)
Default : Да
Forced : Нет
Цветовой диапазон : Limited
Основные цвета : BT.709
Характеристики трансфера : BT.709
Коэффициенты матрицы : BT.709

Аудио
Идентификатор : 2
Формат : AC-3
Формат/Информация : Audio Coding 3
Расширение режима : CM (complete main)
Параметр Endianness формата : Big
Идентификатор кодека : A_AC3
Продолжительность : 45 м. 46 с.
Вид битрейта : Постоянный
Битрейт : 192 Кбит/сек
Каналы : 2 канала
Расположение каналов : Front: L R
Частота : 48,0 КГц
Частота кадров : 31,250 кадров/сек (1536 spf)
Метод сжатия : С потерями
Задержка видео : -40 мс.
Размер потока : 62,9 Мбайт (6%)
Язык : unknown
Default : Да
Forced : Нет

Когда раздача ведётся путём добавления новых серий, при каждом добавлении создётся новый торрент. Чтобы начать докачку новой серии, пользователям необходимо сделать следующее:
(1) остановить скачивание,
(2) удалить старый торрент у себя из клиента (старые серии удалять не надо),
(3) скачать новый торрент и запустить его у себя в клиенте вместо старого, при этом указать клиенту путь в старую папку, куда и должно происходить скачивание новых серий.
Ваш клиент при этом должен произвести хеширование (проверку) старой папки (если не производит сам - помогите ему сделать это), и будет докачивать только те серии, которых у вас ещё нет. Старые серии при этом не удаляются, а продолжают раздаваться!
Eсли вы уже удалили старые серии, то предотвратить повторную закачку старых серий можно, отжав галочку в соответсвующих местах при запуске нового торрента. По возможности, желательно не удалять старые серии как можно дольше, чтобы релизёр не столько продолжал раздавать старые серии, а смог сконцентрироваться на новых.
pb.wtf



Скачать Путешествие к центру души через торрент https://i104.fastpic.ru/big/2018/0515/58/ebde71ed1393ee903bd99aed7e070758.jpg Скачать фильм Путешествие к центру души через торрент бесплантно в хорошем качестве Описание: Сага о судьбах двух девушек – Риты и Веры, ставших ближайшими подругами в переломный исторический момент распада СССР. История ... 5.4 10 7
Торрент: Зарегистрирован [2018-05-26 17:58] · скачан: 20 раз
Статус: √ проверено
Размер: 13.41 GB
Как cкачать? Как скачать Путешествие к центру души через торрент | qTorrent

% Раздел Тема Автор DL S | L
Наши сериалы [ 35.71 GB ] Путешествие к центру души / Сезон: 1 / Серии: 1-16 из 16 [2018 Мело WEB-DL 1080p] bober100 Скачать
1 | 0
Наши сериалы [ 8.36 GB ] Путешествие к центру души / Сезон: 1 / Серии: 1-16 из 16 [2018 Мело SATRip-AVC] bober100 Скачать
1 | 0

28-11-2019 20:33  

Отключить всю рекламу на сайте

    Дорогой пользователь! Огромная просьба, поблагодарите релизера, оцените раздачу и оставьте свои комментарий, если Вы скачали Путешествие к центру души через торрент бесплатно! Внесите свою лепту в развитие PiratBit!
    Комментировать посты могут только пользователи прошедшие не сложную регистрацию
    Показать сообщения:    

    Путешествие к центру души через торрент
    Скачать бесплатно Путешествие к центру души
    Путешествие к центру души скачать торрент
    Путешествие к центру души смотреть онлайн
    Cкачать фильм Путешествие к центру души бесплатно
    Путешествие к центру души скачать торрент в хорошем качестве
    Путешествие к центру души смотреть онлайн бесплатно в хорошем качестве


    Вы не можете начинать темы
    Вы не можете отвечать на сообщения
    Вы не можете редактировать свои сообщения
    Вы не можете удалять свои сообщения
    Вы не можете голосовать в опросах
    Вы не можете прикреплять файлы к сообщениям
    Вы можете скачивать файлы