Всегда рабочее зеркало без VPN и Proxy просто перед .vidak.icu напиши любое слово или цифру, Пример http://t8au.vidak.icu

Лицензия

MVO

1 сезон

1

1 сезон

iTunes

1 сезон

13

1 сезон

Deluxe

pack

Рекомендуем

Repack

30

ВАЖНО

RePack

MK11

RePack

jed

RePack

fifa19

RePack

RDR2

RePack

NEED FOR SPEED™ PAYBACK

Кинопоиск HD

6 сезон

 Острые козырьки 6 сезон

Все сериалы

все сериалы на PB.wtf

RePack

FAR CRY 5
  
Magnet ссылка

Храброе сердце / Braveheart (Мэл Гибсон) [1995, драма, военный, биография, UHD BDRip 2160p] DUB + AVO [А.Гаврилов] pb.wtf

Храброе сердце через торрент pb.wtf

Размер: 55.24 GB | Добавлен: 4 года 3 мес. назад | Торрент скачан:31 раз
Смотреть онлайн Храброе сердце | Скачать    Ребята, помогите собрать деньги на оплату серверов!!!

17-05-2018 06:46 Храброе сердце Скачать торрент  

Храброе сердце / Braveheart«Все умирают, но не все живут по-настоящему»
Год выпуска: 1995
Страна: США
Жанр: драма, военный, биография, история
Продолжительность: 02:57:43
Перевод: Дублированный, авторский
Субтитры: Русские, английские
Режиссер: Мэл Гибсон
В ролях:

Мэл Гибсон (William Wallace), Софи Марсо (Princess Isabelle), Патрик МакГуэн (Longshanks - King Edward I), Энгус МакФадьен (Robert the Bruce), Брендан Глисон (Hamish), Катрин МакКормак (Murron), Брайан Кокс (Argyle Wallace), Джерард МакСорли (Cheltham), Мартин Мерфи (Lord Talmadge), Томми Флэнаган (Morrison), Джон Мурта (Lochlan), Джеймс Робинсон (Young William)
Описание:
Действие фильма начинается в 1280 году в Шотландии. Это история легендарного национального героя Уильяма Уоллеса, посвятившего себя борьбе с англичанами при короле Эдварде Длинноногом.
Рейтинг:

MPAA: R - Лицам до 17 лет обязательно присутствие взрослого
Качество: UHD BDRip 2160p
Формат: MKV
Видео: HEVC, 36000 Кбит/с, 3840x1634, 23.976 Кадр/с
Аудио #1: Русский (DTS, 6 ch, 768 Кбит/с) / Дублированный (Blu-ray CEE)
Аудио #2: Русский (DTS, 6 ch, 1510 Кбит/с) / Авторский одноголосый (А.Гаврилов)
Аудио #3: Украинский (AC3, 2 ch, 192 Кбит/с) / Многоголосый закадровый, ТЕТ
Аудио #4: Украинский (AC3, 2 ch, 192 Кбит/с) / Двухголосый закадровый, ICTV
Аудио #5: Английский (Atmos / TrueHD, 8 ch, 5106 Кбит/с) Оригинал
Аудио #6: Английский (AC3, 6 ch, 640 Кбит/с) Оригинал
Навигация по главам: есть
• Несколько главных сражений в фильме пришлось переснимать из-за того, что на статистах в кадре были замечены солнечные очки и наручные часы.
• Король Эдуард I не был язычником, как это утверждается в фильме. Более того, он был участником Восьмого крестового похода.
• Отец и брат реального Уильяма Уоллеса были убиты в 1291 году, то есть когда Уоллесу было около 21 года, а не 10, как это показано в фильме.
• Реальный Уильям Уоллес не мог быть отцом Эдуарда III, как это предполагается в фильме. Между казнью Уоллеса (1305 год) и рождением Эдуарда III (1312 год) прошло 7 лет.
• В изображении битвы при Стерлингском мосту отсутствует собственно Стерлингский мост, который сыграл важную роль в победе шотландцев.
• Захват властями Уоллеса был спровоцирован не предательством отца Роберта Брюса, как это показано в фильме, а предательством лояльного английскому королю шотландского рыцаря Джона де Ментейса.
• Синяя краска из вайды, которой накрашены лица Уоллеса и его соратников, применялась древними кельтскими воинами. В XIII веке, когда происходит действия фильма, она не использовалась.
• Король Эдуард I умер не в одно время с Уоллесом, а через два года (в 1307 году).
• Меч Уоллеса в настоящее время хранится в Британском историческом музее. Во время съемок фильма "Храброе сердце" Мел Гибсон держал в руках 12 копий этого меча. Все копии были выполнены в точном соответствии оригиналу, т. е. и размер и вес.
Специальная премия Национального совета обозревателей Мелу Гибсону.

Оскар, 1996 год
Победитель (5):
Лучший фильм
Лучший режиссер (Мэл Гибсон)
Лучшая работа оператора
Лучший монтаж звука
Лучший грим
Номинации (5):
Лучший сценарий
Лучшие костюмы
Лучший звук
Лучший монтаж
Лучший саундтрек к драматическому фильму

Золотой глобус, 1996 год
Победитель (1):
Лучший режиссер (Мэл Гибсон)
Номинации (3):
Лучший фильм (драма)
Лучший сценарий
Лучший саундтрек

Премия канала «MTV», 1996 год
Победитель (1):
Лучшая экшн-сцена
Номинации (2):
Лучший фильм
Лучшая мужская роль (Мэл Гибсон)

Британская академия, 1996 год
Победитель (3):
Лучшая работа оператора
Лучшие костюмы
Лучший звук
Номинации (4):
Лучший грим/прически
Лучшая работа художника-постановщика
Премия имени Дэвида Лина за достижения в режиссуре (Мэл Гибсон)
Премия имени Энтони Эскуита за достижения в создании музыки к фильму

Сатурн, 1996 год
Номинации (3):
Лучшие костюмы
Лучшая музыка
Лучший приключенческий фильм или боевик
Общее
Уникальный идентификатор : 180161238264892344781938526615388587154 (0x8789CAD80DD99E5AA1A6C81281908492)
Полное имя : H:\Braveheart.1995.2160p.BluRay.x265.10bit.HDR.Master5.mkv
Формат : Matroska
Версия формата : Version 4 / Version 2
Размер файла : 55,2 Гбайт
Продолжительность : 2 ч. 57 м.
Режим общего битрейта : Переменный
Общий поток : 44,5 Мбит/сек
Название фильма : Braveheart.1995.2160p.BluRay.x265.10bit.HDR.Master5
Дата кодирования : UTC 2018-05-16 19:46:05
Программа кодирования : mkvmerge v8.1.0 ('Psychedelic Postcard') 32bit
Библиотека кодирования : libebml v1.3.1 + libmatroska v1.4.2

Видео
Идентификатор : 1
Формат : HEVC
Формат/Информация : High Efficiency Video Coding
Профиль формата : Main [email protected]@High
Идентификатор кодека : V_MPEGH/ISO/HEVC
Продолжительность : 2 ч. 57 м.
Битрейт : 36,0 Мбит/сек
Ширина : 3840 пикселей
Высота : 1634 пикселя
Соотношение сторон : 2,35:1
Режим частоты кадров : Постоянный
Частота кадров : 23,976 (24000/1001) кадра/сек
Цветовое пространство : YUV
Субдискретизация насыщенности : 4:2:0 (Type 2)
Битовая глубина : 10 бит
Бит/(Пиксели*Кадры) : 0.239
Размер потока : 44,7 Гбайт (81%)
Заголовок : Braveheart.1995.2160p.BluRay.x265.10bit.HDR.Master5
Библиотека кодирования : x265 2.7+348-0968a46d6ba4:[Windows][GCC 7.3.0][64 bit] 10bit
Настройки программы : cpuid=1176575 / frame-threads=5 / numa-pools=32 / wpp / no-pmode / no-pme / no-psnr / no-ssim / log-level=2 / input-csp=1 / input-res=3840x1634 / interlace=0 / total-frames=255642 / level-idc=51 / high-tier=1 / uhd-bd=0 / ref=4 / no-allow-non-conformance / repeat-headers / annexb / aud / hrd / info / hash=0 / no-temporal-layers / no-open-gop / min-keyint=24 / keyint=240 / gop-lookahead=0 / bframes=4 / b-adapt=2 / b-pyramid / bframe-bias=0 / rc-lookahead=25 / lookahead-slices=4 / scenecut=40 / radl=0 / no-intra-refresh / ctu=64 / min-cu-size=8 / rect / no-amp / max-tu-size=32 / tu-inter-depth=1 / tu-intra-depth=1 / limit-tu=0 / rdoq-level=2 / dynamic-rd=0.00 / no-ssim-rd / signhide / no-tskip / nr-intra=0 / nr-inter=0 / no-constrained-intra / no-strong-intra-smoothing / max-merge=3 / limit-refs=3 / limit-modes / me=3 / subme=3 / merange=57 / temporal-mvp / weightp / no-weightb / no-analyze-src-pics / deblock=-3:-3 / no-sao / no-sao-non-deblock / rd=4 / no-early-skip / rskip / no-fast-intra / no-tskip-fast / no-cu-lossless / no-b-intra / no-splitrd-skip / rdpenalty=0 / psy-rd=2.00 / psy-rdoq=1.00 / no-rd-refine / no-lossless / cbqpoffs=0 / crqpoffs=0 / rc=crf / crf=18.0 / qcomp=0.60 / qpstep=4 / stats-write=0 / stats-read=0 / vbv-maxrate=160000 / vbv-bufsize=160000 / vbv-init=0.9 / crf-max=0.0 / crf-min=0.0 / ipratio=1.40 / pbratio=1.30 / aq-mode=1 / aq-strength=1.00 / cutree / zone-count=0 / no-strict-cbr / qg-size=32 / no-rc-grain / qpmax=69 / qpmin=0 / no-const-vbv / sar=1 / overscan=0 / videoformat=5 / range=0 / colorprim=9 / transfer=16 / colormatrix=9 / chromaloc=1 / chromaloc-top=2 / chromaloc-bottom=2 / display-window=0 / master-display=G(13250,34500)B(7500,3000)R(34000,16000)WP(15635,16450)L(10000000,1) / max-cll=0,0 / min-luma=0 / max-luma=1023 / log2-max-poc-lsb=8 / vui-timing-info / vui-hrd-info / slices=1 / no-opt-qp-pps / no-opt-ref-list-length-pps / no-multi-pass-opt-rps / scenecut-bias=0.05 / no-opt-cu-delta-qp / no-aq-motion / hdr / hdr-opt / no-dhdr10-opt / no-idr-recovery-sei / analysis-reuse-level=5 / scale-factor=0 / refine-intra=0 / refine-inter=0 / refine-mv=0 / no-limit-sao / ctu-info=0 / no-lowpass-dct / refine-mv-type=0 / copy-pic=1 / max-ausize-factor=1.0 / no-dynamic-refine / no-single-sei
Default : Да
Forced : Нет
Цветовой диапазон : Limited
Основные цвета : BT.2020
Характеристики трансфера : SMPTE ST 2084
Коэффициенты матрицы : BT.2020 non-constant
MasteringDisplay_ColorPrimaries : R: x=0.680000 y=0.320000, G: x=0.265000 y=0.690000, B: x=0.150000 y=0.060000, White point: x=0.312700 y=0.329000
MasteringDisplay_Luminance : min: 0.0001 cd/m2, max: 1000.0000 cd/m2

Аудио #1
Идентификатор : 2
Формат : DTS
Формат/Информация : Digital Theater Systems
Режим : 16
Параметр Endianness формата : Big
Идентификатор кодека : A_DTS
Продолжительность : 2 ч. 57 м.
Вид битрейта : Постоянный
Битрейт : 768 Кбит/сек
Каналы : 6 каналов
Расположение каналов : Front: L C R, Side: L R, LFE
Частота : 48,0 КГц
Частота кадров : 93,750 кадра/сек (512 spf)
Битовая глубина : 24 бит
Метод сжатия : С потерями
Размер потока : 976 Мбайт (2%)
Заголовок : DTS; 6 ch; 48 kHz; 768 kbps - Дубляж, Blu-ray CEE
Язык : Russian
Default : Да
Forced : Нет

Аудио #2
Идентификатор : 3
Формат : DTS
Формат/Информация : Digital Theater Systems
Режим : 16
Параметр Endianness формата : Big
Идентификатор кодека : A_DTS
Продолжительность : 2 ч. 57 м.
Вид битрейта : Постоянный
Битрейт : 1510 Кбит/сек
Каналы : 6 каналов
Расположение каналов : Front: L C R, Side: L R, LFE
Частота : 48,0 КГц
Частота кадров : 93,750 кадра/сек (512 spf)
Битовая глубина : 24 бит
Метод сжатия : С потерями
Размер потока : 1,87 Гбайт (3%)
Заголовок : DTS; 6 ch; 48 kHz; 1536 kbps - , А.Гаврилов
Язык : Russian
Default : Нет
Forced : Нет

Аудио #3
Идентификатор : 4
Формат : AC-3
Формат/Информация : Audio Coding 3
Расширение режима : CM (complete main)
Параметр Endianness формата : Big
Идентификатор кодека : A_AC3
Продолжительность : 2 ч. 57 м.
Вид битрейта : Постоянный
Битрейт : 192 Кбит/сек
Каналы : 2 канала
Расположение каналов : Front: L R
Частота : 48,0 КГц
Частота кадров : 31,250 кадров/сек (1536 spf)
Метод сжатия : С потерями
Размер потока : 244 Мбайт (0%)
Язык : Ukrainian
Default : Нет
Forced : Нет

Аудио #4
Идентификатор : 5
Формат : AC-3
Формат/Информация : Audio Coding 3
Расширение режима : CM (complete main)
Параметр Endianness формата : Big
Идентификатор кодека : A_AC3
Продолжительность : 2 ч. 57 м.
Вид битрейта : Постоянный
Битрейт : 192 Кбит/сек
Каналы : 2 канала
Расположение каналов : Front: L R
Частота : 48,0 КГц
Частота кадров : 31,250 кадров/сек (1536 spf)
Метод сжатия : С потерями
Размер потока : 244 Мбайт (0%)
Язык : Ukrainian
Default : Нет
Forced : Нет

Аудио #5
Идентификатор : 6
Формат : Atmos / TrueHD
Идентификатор кодека : A_TRUEHD
Продолжительность : 2 ч. 57 м.
Вид битрейта : Переменный
Битрейт : 5106 Кбит/сек
Максимальный битрейт : 8013 Кбит/сек
Каналы : Object Based / 8 каналов
Расположение каналов : Object Based / Front: L C R, Side: L R, Back: L R, LFE
Частота : / 48,0 КГц
Частота кадров : 1200,000 кадров/сек (40 spf)
Метод сжатия : Без потерь
Задержка видео : 2 с. 169 мс.
Размер потока : 6,34 Гбайт (11%)
Заголовок : Atmos 7.1
Язык : English
Default : Нет
Forced : Нет

Аудио #6
Идентификатор : 7
Формат : AC-3
Формат/Информация : Audio Coding 3
Расширение режима : CM (complete main)
Параметр Endianness формата : Big
Идентификатор кодека : A_AC3
Продолжительность : 2 ч. 57 м.
Вид битрейта : Постоянный
Битрейт : 640 Кбит/сек
Каналы : 6 каналов
Расположение каналов : Front: L C R, Side: L R, LFE
Частота : 48,0 КГц
Частота кадров : 31,250 кадров/сек (1536 spf)
Метод сжатия : С потерями
Задержка видео : 2 с. 169 мс.
Размер потока : 813 Мбайт (1%)
Заголовок : AC-3 5.1
Язык : English
Default : Нет
Forced : Нет

Текст #1
Идентификатор : 8
Формат : UTF-8
Идентификатор кодека : S_TEXT/UTF8
Идентификатор кодека/Информация : UTF-8 Plain Text
Продолжительность : 1 ч. 17 м.
Битрейт : 3 бит/сек
Count of elements : 34
Размер потока : 1,79 Кбайт (0%)
Язык : Russian
Default : Да
Forced : Да

Текст #2
Идентификатор : 9
Формат : UTF-8
Идентификатор кодека : S_TEXT/UTF8
Идентификатор кодека/Информация : UTF-8 Plain Text
Продолжительность : 2 ч. 48 м.
Битрейт : 49 бит/сек
Count of elements : 1012
Размер потока : 61,8 Кбайт (0%)
Язык : Russian
Default : Нет
Forced : Нет

Текст #3
Идентификатор : 10
Формат : UTF-8
Идентификатор кодека : S_TEXT/UTF8
Идентификатор кодека/Информация : UTF-8 Plain Text
Продолжительность : 2 ч. 48 м.
Битрейт : 30 бит/сек
Count of elements : 1262
Размер потока : 37,7 Кбайт (0%)
Язык : English
Default : Нет
Forced : Нет

Меню
00:00:00.000 : en:00:00:00.000
00:07:25.528 : en:00:07:25.528
00:16:24.442 : en:00:16:24.442
00:22:00.694 : en:00:22:00.694
00:34:16.888 : en:00:34:16.888
00:39:49.679 : en:00:39:49.679
00:56:04.987 : en:00:56:04.987
01:00:01.264 : en:01:00:01.264
01:07:28.044 : en:01:07:28.044
01:11:51.933 : en:01:11:51.933
01:19:01.528 : en:01:19:01.528
01:33:03.203 : en:01:33:03.203
01:43:44.718 : en:01:43:44.718
01:53:55.454 : en:01:53:55.454
01:58:58.465 : en:01:58:58.465
02:17:15.477 : en:02:17:15.477
02:24:18.900 : en:02:24:18.900
02:28:49.796 : en:02:28:49.796
02:34:12.410 : en:02:34:12.410
02:36:32.091 : en:02:36:32.091
02:46:53.879 : en:02:46:53.879
02:50:43.066 : en:02:50:43.066
pb.wtf



Скачать Храброе сердце через торрент https://b.radikal.ru/b04/1805/c0/a58cfa889c29.png Скачать, смотреть онлайн Храброе сердце бесплантно в хорошем качестве Описание: Действие фильма начинается в 1280 году в Шотландии. Это история легендарного национального героя Уильяма Уоллеса, посвятившего ... 10 10 4
Info! Золотая раздача, скачанное не засчитывается.
Торрент: Зарегистрирован [2018-05-17 06:46] · скачан: 31 раз
Статус: √ проверено
Размер: 55.24 GB
Как cкачать? Как скачать Храброе сердце через торрент | UTorrent

% Раздел Тема Автор DL S | L
Ultra HD (UHD: 2K, 4K, 8K) — видео сверхвысокой чёткости [ 72.09 GB ] Храброе сердце / Braveheart [1995 военный биография UHD BDRemux 2160p] DUB [Dolby Vision] sheker187 Скачать
1 | 0
Фильмы [HD 720p, 1080p] (Хороший звук DUB, MVO) [ 7.8 GB ] Храброе сердце / Braveheart [1995 военный биография история BDRip 1080p HEVC ()] Мичман37 Скачать
1 | 1
Ultra HD (UHD: 2K, 4K, 8K) — видео сверхвысокой чёткости [ 119.39 GB ] Храброе сердце / Braveheart [1995 военный биография UHD Blu-Ray 2160p] DUB + 9xMVO + 3xAVO [HDR + Dolby Vision] [Custom] sheker187 Скачать
1 | 0
Ultra HD (UHD: 2K, 4K, 8K) — видео сверхвысокой чёткости [ 18.61 GB ] Храброе сердце / Braveheart [1995 Исторический военный UHDRip 2160p HEVC ] HANNIBALL Скачать
1 | 1
Ultra HD (UHD: 2K, 4K, 8K) — видео сверхвысокой чёткости [ 80.06 GB ] Храброе сердце / Braveheart [1995 военный биография UHD BDRemux 2160p] DUB + 7xMVO + 4xAVO + DVO + VO sheker187 Скачать
1 | 0
Ultra HD (UHD: 2K, 4K, 8K) — видео сверхвысокой чёткости [ 89.82 GB ] Храброе сердце / Braveheart [1995 военный биография UHD BDRemux 2160p] DUB + AVO [А.Гаврилов] sheker187 Скачать
1 | 0
Фильмы (BDRip, HDrip-AVC) (48-60 fps) [ 3.95 GB ] Храброе сердце / Braveheart [1995 военный биография BDRip-AVC 60fps Dub] от R.G. HD-Films Tiberiumsun69 Скачать
9 | 0

28-11-2019 20:33  

Отключить вcю реклaмy на сайте

    Дорогой пользователь! Огромная просьба, поблагодарите релизера, оцените раздачу и оставьте свои комментарий, если Вы скачали Храброе сердце через торрент бесплатно!
    Комментировать посты могут только пользователи прошедшие не сложную регистрацию
    Показать сообщения:    

    Храброе сердце через торрент
    Скачать бесплатно Храброе сердце
    Храброе сердце скачать торрент
    Храброе сердце смотреть онлайн
    Cкачать фильм Храброе сердце бесплатно
    Храброе сердце скачать торрент в хорошем качестве
    Храброе сердце смотреть онлайн бесплатно в хорошем качестве


    Вы не можете начинать темы
    Вы не можете отвечать на сообщения
    Вы не можете редактировать свои сообщения
    Вы не можете удалять свои сообщения
    Вы не можете голосовать в опросах
    Вы не можете прикреплять файлы к сообщениям
    Вы можете скачивать файлы