2 сезон

iTunes

1 сезон

1

iTunes

iTunes

iTunes

1 сезон

RePack

30

ИГРА 18+

pack

ВАЖНО

!!Акция!!

Alien_RageХит недели

RePack

MK11
pack

Забери бонус

RePack

jed

!!Акция!!

Alien_Rage

RePack

fifa19

RePack

Assassins Creed: Odyssey

RePack

NEED FOR SPEED™ PAYBACK

4 сезон

9 сезон

Бесстыжие 9 сезон

Все сериалы

все сериалы на PB.wtf

RePack

FAR CRY 5
  

Посольство / Сезон: 1 / Серии: 1-14 из 14 (Артём Аксененко) [2018, Детектив, драма, криминал, WEBRip] pb.wtf

Посольство через торрент pb.wtf

Размер: 4.73 GB | Добавлен: 2 года 5 мес. назад | Торрент скачан:118 раз
Скачать  

17-05-2018 07:31 Посольство Скачать торрент  

ПосольствоГод выпуска: 2018
Страна: Россия
Жанр: Детектив, драма, криминал
Продолжительность: ~ 00:41:00
Перевод: Не требуется
Субтитры: отсутствуют

Режиссер: Артём Аксененко



В ролях:

Игорь Ливанов, Гела Месхи, Виталий Кищенко, Виктория Толстоганова, Юлия Ауг, Илья Ермолов, Сергей Комаров (II), Сергей Апрельский, Анна Андрусенко, Дмитрий Фрид, Виктория Соловьёва (II), Бесо Гатаев, Диана Пожарская, Мартиньш Вилсонс

Описание:

Одна из стран восточной Европы находится на пороге принятия «антирусского пакета», её активно подталкивают к этому власти США и Великобритании. Необходима провокация, чтобы все население Страны поддержало своё правительство в борьбе с Россией. История начинается с того, что в одном из столичных баров местные спецслужбы задерживают первого секретаря российского посольства Геннадия Веденеева (Гела Месхи) с дипломатическим кейсом, набитым наркотиками. Событие моментально приобретает масштаб главного международного скандала. Теперь команде российских дипломатов во главе с Алексеем Прокофьевым (Игорь Ливанов) предстоит не только оперативно выяснить, кто и для чего сплёл такую сеть интриг вокруг российского посольства, но и разобраться в назревающем международном конфликте.

Качество: WEBRip
Формат: AVI

Видео: XviD build 73, 720x304 (2.35:1), 25.000 fps, ~ 1200 Kbps (~ 0.218 bit/pixel)
Аудио: 48.0 kHz, MP3, 2/0 ch, 160 kbps
скриншот   скриншот   скриншот   скриншот   скриншот  

Общее
Полное имя : F:\Posoljstvo.2018.XviD.WEBRip.GeneralFilm\Posoljstvo.e01-03.avi
Формат : AVI
Формат/Информация : Audio Video Interleave
Размер файла : 1,09 Гбайт
Продолжительность : 1 ч. 54 м.
Общий поток : 1362 Кбит/сек
Программа кодирования : VirtualDubMod 1.5.10.3 | www.virtualdub-fr.org || (build 2550/release)
Библиотека кодирования : VirtualDubMod build 2550/release

Видео
Идентификатор : 0
Формат : MPEG-4 Visual
Профиль формата : Advanced Simple@L5
Параметр BVOP формата : 1
Параметр QPel формата : Нет
Параметр GMC формата : Без точки перехода
Параметр матрицы формата : Default (H.263)
Идентификатор кодека : XVID
Идентификатор кодека/Подсказка : XviD
Продолжительность : 1 ч. 54 м.
Битрейт : 1192 Кбит/сек
Ширина : 720 пикселей
Высота : 304 пикселя
Соотношение сторон : 2,35:1
Частота кадров : 25,000 кадров/сек
Цветовое пространство : YUV
Субдискретизация насыщенности : 4:2:0
Битовая глубина : 8 бит
Тип развёртки : Прогрессивная
Метод сжатия : С потерями
Бит/(Пиксели*Кадры) : 0.218
Размер потока : 977 Мбайт (88%)
Библиотека кодирования : XviD 73

Аудио
Идентификатор : 1
Формат : MPEG Audio
Версия формата : Version 1
Профиль формата : Layer 3
Идентификатор кодека : 55
Идентификатор кодека/Подсказка : MP3
Продолжительность : 1 ч. 54 м.
Вид битрейта : Постоянный
Битрейт : 160 Кбит/сек
Каналы : 2 канала
Частота : 48,0 КГц
Метод сжатия : С потерями
Размер потока : 131 Мбайт (12%)
Выравнивание : Соединение по промежуткам
Продолжительность промежутка : 40 мс. (1,00 видеокадр)
Время предзагрузки промежутка : 504 мс.
Библиотека кодирования : LAME3.99r
Настройки программы : -m s -V 4 -q 0 -lowpass 17.5 -b 160

pb.wtf



Скачать Посольство через торрент http://img12.lostpic.net/2018/05/07/b399a6d37ff4c365638dbfd4ffdd3ac4.jpg Скачать фильм Посольство через торрент бесплантно в хорошем качестве Описание: Одна из стран восточной Европы находится на пороге принятия «антирусского пакета», её активно подталкивают к этому власти США и ... 8 10 6
Торрент: Зарегистрирован [2018-05-17 07:31] · скачан: 118 раз
Статус: √ проверено
Размер: 4.73 GB
Как cкачать? Как скачать Посольство через торрент | qTorrent

% Раздел Тема Автор DL S | L
Наши сериалы [ 10.2 GB ] Посольство / Сезон: 1 / Серии: 1-14 из 14 [2018 WEB-DL 720p] bober100 Скачать
1 | 0
Наши сериалы [ 22.54 GB ] Посольство / Сезон: 1 / Серии: 1-14 из 14 [2018 WEB-DL 1080p] bober100 Скачать
1 | 0
Наши сериалы [ 8.02 GB ] Посольство / Сезон: 1 / Серии: 1-14 из 14 [2018 WEB-DLRip-AVC] bober100 Скачать
1 | 0
Наши сериалы [ 6.38 GB ] Посольство / Сезон: 1 / Серии: 1-14 из 14 [2018 WEB-DLRip] bober100 Скачать
1 | 0

28-11-2019 20:33  

Отключить всю рекламу на сайте

    Дорогой пользователь! Огромная просьба, поблагодарите релизера, оцените раздачу и оставьте свои комментарий, если Вы скачали Посольство через торрент бесплатно! Внесите свою лепту в развитие PiratBit!
    Комментировать посты могут только пользователи прошедшие не сложную регистрацию
    Показать сообщения:    

    Посольство через торрент
    Скачать бесплатно Посольство
    Посольство скачать торрент
    Посольство смотреть онлайн
    Cкачать фильм Посольство бесплатно
    Посольство скачать торрент в хорошем качестве
    Посольство смотреть онлайн бесплатно в хорошем качестве


    Вы не можете начинать темы
    Вы не можете отвечать на сообщения
    Вы не можете редактировать свои сообщения
    Вы не можете удалять свои сообщения
    Вы не можете голосовать в опросах
    Вы не можете прикреплять файлы к сообщениям
    Вы можете скачивать файлы