Ссылка на приватное зеркало нашего сайта всего за 1$. Внимание количество ограничено!!!

2 сезон

iTunes

1 сезон

1

2 сезон

2 сезон

iTunes

1 сезон

RePack

30

Ultimate

ВАЖНО

ИГРА 18+

pack

RePack

MK11
pack

Забери бонус

RePack

jed

!!Акция!!

Alien_Rage

RePack

fifa19

RePack

Assassins Creed: Odyssey

RePack

NEED FOR SPEED™ PAYBACK

4 сезон

9 сезон

Бесстыжие 9 сезон

Все сериалы

все сериалы на PB.wtf

RePack

FAR CRY 5
  

Входящий / Incoming (Эрик Сарагоса) [2018, фантастика, боевик, триллер, WEBRip 1080p] MVO [HDrezka Studio] pb.wtf

Входящий через торрент pb.wtf

Размер: 3.33 GB | Добавлен: 2 года 6 мес. назад | Торрент скачан:194 раза
Скачать  

17-05-2018 08:37 Входящий Скачать торрент  

Входящий / IncomingГод выпуска: 2018
Страна: Сербия
Жанр: фантастика, боевик, триллер
Продолжительность: 01:29:06
Перевод: Профессиональный (многоголосый) | HDRezka studio
Субтитры: отсутствуют

Режиссер: Эрик Сарагоса

rating

В ролях:

Скотт Эдкинс, Доминик Пауэр, Аарон МакКаскер, Алаа Умузун, Арки Аломар, Лукас Лоугрэн, Миодраг Капор, Владан Дужович

Описание:

Международная космическая станция превратилась в секретную тюрьму, из которой никто не выходит, и никто не знает, что именно там происходит. Когда заключенные террористы захватывают станцию ??и направляют её на Москву, только пилот и новичок-доктор могут остановить их. Эта задача усложняется бывшим агентом ЦРУ, у которого свои планы и на станцию, и на террористов...

Качество: WEBRip 1080p
Формат: MKV

Видео: 1920x848 (2.25:1), 23.976 fps, MPEG-4 AVC ~4 479 kbps avg
Аудио#1: 48.0 kHz, AC3 Dolby Digital, 2/0 (L,R) ch, ~384 kbps | RUS | HDrezka Studio
Аудио#2: 48.0 kHz, AC3 Dolby Digital, 3/2 (L,C,R,l,r) + LFE ch, ~384 kbps | ENG


Дата премьеры (мир): 4 мая 2018
скриншот   скриншот   скриншот   скриншот  

General
Unique ID : 229276635679476205363918753442790521786 (0xAC7D12E5E3E67CF5BA92091C869E3BBA)
Format : Matroska
Format version : Version 2
File size : 3.33 GiB
Duration : 1h 29mn
Overall bit rate : 5 354 Kbps
Encoded date : UTC 2018-05-17 06:32:06
Writing application : mkvmerge v7.8.0 ('River Man') 32bit built on Apr 3 2015 12:11:22
Writing library : libebml v1.3.1 + libmatroska v1.4.2

Video
ID : 1
Format : AVC
Format/Info : Advanced Video Codec
Format profile : High@L4
Format settings, CABAC : Yes
Format settings, ReFrames : 5 frames
Codec ID : V_MPEG4/ISO/AVC
Duration : 1h 29mn
Bit rate : 4 479 Kbps
Width : 1 920 pixels
Height : 848 pixels
Display aspect ratio : 2.25:1
Frame rate mode : Constant
Frame rate : 23.976 fps
Color space : YUV
Chroma subsampling : 4:2:0
Bit depth : 8 bits
Scan type : Progressive
Bits/(Pixel*Frame) : 0.115
Stream size : 2.79 GiB (84%)
Language : English
Default : Yes
Forced : No
Color range : Limited
Color primaries : BT.709
Transfer characteristics : BT.709
Matrix coefficients : BT.709

Audio #1
ID : 2
Format : AC-3
Format/Info : Audio Coding 3
Mode extension : CM (complete main)
Format settings, Endianness : Big
Codec ID : A_AC3
Duration : 1h 29mn
Bit rate mode : Constant
Bit rate : 384 Kbps
Channel(s) : 2 channels
Channel positions : Front: L R
Sampling rate : 48.0 KHz
Compression mode : Lossy
Delay relative to video : -42ms
Stream size : 245 MiB (7%)
Language : Russian
Default : Yes
Forced : Yes

Audio #2
ID : 3
Format : AC-3
Format/Info : Audio Coding 3
Mode extension : CM (complete main)
Format settings, Endianness : Big
Codec ID : A_AC3
Duration : 1h 29mn
Bit rate mode : Constant
Bit rate : 384 Kbps
Channel(s) : 6 channels
Channel positions : Front: L C R, Side: L R, LFE
Sampling rate : 48.0 KHz
Compression mode : Lossy
Delay relative to video : -42ms
Stream size : 245 MiB (7%)
Language : English
Default : No
Forced : No

Menu
00:00:00.000 : en:1
00:11:16.134 : en:2
00:21:51.185 : en:3
00:32:06.884 : en:4
00:45:02.951 : en:5
00:56:29.262 : en:6
01:06:51.217 : en:7
01:18:24.910 : en:8
01:25:51.147 : en:9

pb.wtf



Скачать Входящий через торрент http://c.radikal.ru/c15/1805/ba/84cf2cbb68f6.png Скачать фильм Входящий через торрент бесплантно в хорошем качестве Описание: Международная космическая станция превратилась в секретную тюрьму, из которой никто не выходит, и никто не знает, что именно там ... 8.7 10 7
Торрент: Зарегистрирован [2018-05-17 08:37] · скачан: 194 раз
Статус: T временная
Размер: 3.33 GB
Как cкачать? Как скачать Входящий через торрент | qTorrent

% Раздел Тема Автор DL S | L
T Фильмы 2018 [DVDrip, WEB-DLRip, HDrip] (DUB, MVO) [ 1.46 GB ] Входящий / Incoming [2018 WEBRip] MVO [HDrezka Studio] bober100 Скачать
1 | 0
T Фильмы (WEB-DL 720p, 1080p) [ 2.69 GB ] Входящий / Incoming [2018 WEBRip 720p] MVO [HDrezka Studio] bober100 Скачать
1 | 0

28-11-2019 20:33  

Отключить всю рекламу на сайте

17-05-2018 10:11 Входящий Скачать торрент  

похоже эдкинс скатывается в кампанию к кейджу. жаль, перспективный актер был как по-мнеpb.wtf



17-05-2018 16:23 Входящий Скачать торрент  

Сербы сняли фильм с Эдкинсом в главной роли о том, как космозаключенные гонят станцию с собой на борту на москву...хм...........
Теперь точно глянуpb.wtf



    Дорогой пользователь! Огромная просьба, поблагодарите релизера, оцените раздачу и оставьте свои комментарий, если Вы скачали Входящий через торрент бесплатно! Внесите свою лепту в развитие PiratBit!
    Комментировать посты могут только пользователи прошедшие не сложную регистрацию
    Показать сообщения:    

    Входящий через торрент
    Скачать бесплатно Входящий
    Входящий скачать торрент
    Входящий смотреть онлайн
    Cкачать фильм Входящий бесплатно
    Входящий скачать торрент в хорошем качестве
    Входящий смотреть онлайн бесплатно в хорошем качестве


    Вы не можете начинать темы
    Вы не можете отвечать на сообщения
    Вы не можете редактировать свои сообщения
    Вы не можете удалять свои сообщения
    Вы не можете голосовать в опросах
    Вы не можете прикреплять файлы к сообщениям
    Вы можете скачивать файлы